Простий план / A Simple Plan (1998) AVC Ukr/Eng

Нові коментарі

Нова тема   Відповісти
Автор Повідомлення
Arsenfpu 
Відео Гуртом - фільмокрай
Відео Гуртом - фільмокрай


З нами з: 30.04.09
Востаннє: 10.07.20
Повідомлень: 7049

2020-05-18 19:33  
Простий план / A Simple Plan (1998) AVC Ukr/Eng

Простий план / A Simple Plan (1998) AVC Ukr/Eng


Жанр: кримінальний, драма, трилер
Країна: Велика Британія, Німеччина, Франція, США, Японія



Кінокомпанія: British Broadcasting Corporation (BBC), H2L Media Group, Mutual Film Company
Режисер: Сем Реймі
Актори: Білл Пекстон, Бріджит Фонду, Біллі Боб Торнтон, Брент Бріско, Джек Уолш, Челсі Росс, Беки Енн Бейкер, Гарі Коул, Боб Девіс, Пітер Сівертсен, Том Кері

Сюжет:
За мотивами однойменної новели Скотта Сміта. Міннесота, США. Напередодні Нового року Хенк Мітчелл і його дружина Сара очікують поповнення в родині. Вони живуть в достатку завдяки зусиллям чоловіка. Перед зустріччю Нового року чоловік Сари зі своїм братом Джейкобом і його другом Лу відправляються на кладовище, щоб вшанувати пам'ять рідні Мітчелл. На зворотній дорозі у компанії трапляється неприємність: з нізвідки перед вантажівкою з'являється лисиця, в результаті чого автомобіль заносить в кювет. Розлючений Джейкоб бере рушницю і женеться за твариною, а Хенк і Лу слідують за ними. У лісі трійця випадково натикається на розбитий літак, всередині якого знаходить труп невідомого і сумку, повну грошей. Спочатку Хенк пропонує викликати поліцію, а самим не вплутуватися в цю справу. Але під тиском Лу компанія приймає інше рішення. За обопільною згодою гроші з собою забирає Хенк. Вони домовляються нікому не розповідати про те, що трапилося і почекати настання весни, щоб потім поділити суму. Незважаючи на обіцянку, Хенк розповідає своїй дружині про те, яку знахідку він зробив в лісі. Сара пропонує чоловікові відвести від себе підозру, якщо літак знайдуть, і повернути туди частину грошей ...


Тривалість: 02:01:02
Якість:
Відео:
кодек:
розмір кадру: 1 024 х 576
бітрейт: 2 499 кб/с

Аудіо # 1:
мова: українська
переклад: багатоголосий закадровий
кодек: 2.0
бітрейт: 192 кб/с

Аудіо # 2:
мова: англійська
переклад: оригінал
кодек: 2.0
бітрейт: 192 кб/с
Скріншоти














Про файл
General
Unique ID : 301731555021993466663038367192280328585 (0xE2FF623A0DE62128736BFD2B1F21E989)
Complete name : C:\A Simple Plan (1998) [Ukr,Eng] AVC [Hurtom].
Format :
Format version : Version 4 / Version 2
File size : 2.44 GiB
Duration : 2 h 1 min
Overall bit rate : 2 884 kb/s
Movie name : Простий план / A Simple Plan (1998)
Encoded date : UTC 2020-05-25 17:40:16
Writing application : v21.0.0 ('Tardigrades Will Inherit The Earth') 32-bit
Writing library : libebml v1.3.5 + v1.4.8
Cover : Yes
Attachments : cover.jpg

Video
ID : 1
Format : AVC
Format/Info : Advanced Video Codec
Format profile : [email protected]
Format settings, CABAC : Yes
Format settings, ReFrames : 4 frames
Codec ID : V_MPEG4/ISO/AVC
Duration : 2 h 1 min
Bit rate : 2 499 kb/s
Width : 1 024 pixels
Height : 576 pixels
Display aspect ratio : 16:9
Frame rate mode : Constant
Frame rate : 23.976 (24000/1001) FPS
Color space : YUV
Chroma subsampling : 4:2:0
Bit depth : 8 bits
Scan type : Progressive
Bits/(Pixel*Frame) : 0.177
Stream size : 2.11 GiB (87%)
Writing library : core 157 r2935 545de2f
Encoding settings : cabac=1 / ref=3 / deblock=1:-1:-1 / analyse=0x3:0x113 / me=hex / subme=7 / psy=1 / psy_rd=1.00:0.15 / mixed_ref=1 / me_range=16 / chroma_me=1 / trellis=1 / 8x8dct=1 / cqm=0 / deadzone=21,11 / fast_pskip=1 / chroma_qp_offset=-3 / threads=12 / lookahead_threads=2 / sliced_threads=0 / nr=0 / decimate=1 / interlaced=0 / bluray_compat=0 / constrained_intra=0 / bframes=3 / b_pyramid=2 / b_adapt=1 / b_bias=0 / direct=1 / weightb=1 / open_gop=0 / weightp=2 / keyint=240 / keyint_min=23 / scenecut=40 / intra_refresh=0 / rc_lookahead=40 / rc=2pass / mbtree=1 / bitrate=2499 / ratetol=1.0 / qcomp=0.60 / qpmin=0 / qpmax=69 / qpstep=4 / cplxblur=20.0 / qblur=0.5 / ip_ratio=1.40 / aq=1:1.00
Default : Yes
Forced : No

Audio #1
ID : 2
Format : AC-3
Format/Info : Audio Coding 3
Mode extension : CM (complete main)
Format settings, Endianness : Big
Codec ID : A_AC3
Duration : 2 h 1 min
Bit rate mode : Constant
Bit rate : 192 kb/s
Channel(s) : 2 channels
Channel positions : Front: L R
Sampling rate : 48.0 kHz
Frame rate : 31.250 FPS (1536 spf)
Compression mode : Lossy
Stream size : 166 MiB (7%)
Title : НЛО
Language : Ukrainian
Default : Yes
Forced : Yes

Audio #2
ID : 3
Format : AC-3
Format/Info : Audio Coding 3
Mode extension : CM (complete main)
Format settings, Endianness : Big
Codec ID : A_AC3
Duration : 2 h 1 min
Bit rate mode : Constant
Bit rate : 192 kb/s
Channel(s) : 2 channels
Channel positions : Front: L R
Sampling rate : 48.0 kHz
Frame rate : 31.250 FPS (1536 spf)
Compression mode : Lossy
Stream size : 166 MiB (7%)
Language : English
Default : No
Forced : No
Джерело:
За запис з ТБ дякую пану Bohdan237
Особиста оцінка: не дивився


Срібний реліз (на рейтинг впливає 50% завантаженого)
 Трекер:    Зареєстрований   

Завантажити / скачати фільм українською



відео для новачків



 Зареєстрований:   2020-05-25 21:07
 Розмір:   2.44 GB 
 Оцінка фільму:   8.5/10 (Голосів: 12)
   
Інші релізи
   Простий план / A Simple Plan (1998) 720p Ukr/Eng | Sub Eng Maters  1 / 0   4.67 GB   2020-05-27 22:28 
Maters 
Відео Гуртом - підтримка та поширення
Відео Гуртом - підтримка та поширення


З нами з: 27.03.12
Востаннє: 09.07.20
Повідомлень: 2254

2020-05-18 20:20  
+720
bot 
робот


З нами з: 30.09.07
Востаннє: 26.05.05
Повідомлень: 25027

2020-05-25 21:07  
Тему перенесено з Анонси релізів до форуму Фільми


Arsenfpu

nerodocente 
Частий відвідувач


З нами з: 02.01.11
Востаннє: 10.07.20
Повідомлень: 29

2020-05-26 16:03  
велике дякую за такий чудовий фільм, давно хотів побачити його українською )
Ваш часовий пояс: GMT + 2 Години

Нова тема   Відповісти