Відкривайте, поліція / Les Ripoux (1984) AVC Ukr/Fre

Нові коментарі

Нова тема   Відповісти
Автор Повідомлення
Arsenfpu 
Відео Гуртом - фільмокрай
Відео Гуртом - фільмокрай


З нами з: 30.04.09
Востаннє: 10.07.20
Повідомлень: 7049

2020-05-18 18:31  
Відкривайте, поліція / Les Ripoux (1984) AVC Ukr/Fre

Відкривайте, поліція / Les Ripoux (1984) AVC Ukr/Fre


Жанр: комедія, кримінальний
Країна: Франція



Кінокомпанія: Films 7
Режисер: Клод Зіді
Актори: Філіпп Нуаре, Т'єррі Лермітт, Режин, Грас де Капітані, Жюльєн Гійомар, Клод Броссе, Альбер Сімоно

Сюжет:
Французькі поліцейські часом схожі на досвідчених фермерів: під час патрулювання їм легко вдається зібрати зі своєї дільниці певну кількість капусти. Саме такий кодекс сповідує ветеран правозахисних органів, а заодно і рекетир в законі Рене (блискучий Філіпп Нуаре). Саме йому в напарники попадає зелений випускник поліцейської академії Франсуа (Т'єррі Лермітт), якого навчали зовсім іншому. Досвідчений поліцейський-пройдисвіт навчає хитрощам шахрайства свого юного напарника-ідеаліста. Напарник так входить в раж, що затьмарює свого наскрізь корумпованого наставника.


Тривалість: 01:46:38
Якість:
Відео:
кодек:
розмір кадру: 1 024 х 608
бітрейт: 2 499 кб/с

Аудіо # 1:
мова: українська
переклад: багатоголосий закадровий
кодек: 2.0
бітрейт: 192 кб/с

Аудіо # 2:
мова: французька
переклад: оригінал
кодек: 2.0
бітрейт: 192 кб/с
Скріншоти














Про файл
General
Unique ID : 146688796770250752320256859598037780505 (0x6E5B3C10186A9ADB12525FE0C7310819)
Complete name : C:\Les Ripoux (1984) [Ukr,Fre] AVC [Hurtom].
Format :
Format version : Version 4 / Version 2
File size : 2.15 GiB
Duration : 1 h 46 min
Overall bit rate : 2 885 kb/s
Movie name : Відкривайте, поліція / Les Ripoux (1984)
Encoded date : UTC 2020-05-22 19:39:04
Writing application : v21.0.0 ('Tardigrades Will Inherit The Earth') 32-bit
Writing library : libebml v1.3.5 + v1.4.8
Cover : Yes
Attachments : cover.jpg

Video
ID : 1
Format : AVC
Format/Info : Advanced Video Codec
Format profile : [email protected]
Format settings, CABAC : Yes
Format settings, ReFrames : 4 frames
Codec ID : V_MPEG4/ISO/AVC
Duration : 1 h 46 min
Bit rate : 2 499 kb/s
Width : 1 024 pixels
Height : 608 pixels
Display aspect ratio : 5:3
Frame rate mode : Constant
Frame rate : 24.000 FPS
Color space : YUV
Chroma subsampling : 4:2:0
Bit depth : 8 bits
Scan type : Progressive
Bits/(Pixel*Frame) : 0.167
Stream size : 1.86 GiB (87%)
Writing library : core 157 r2935 545de2f
Encoding settings : cabac=1 / ref=3 / deblock=1:-1:-1 / analyse=0x3:0x113 / me=hex / subme=7 / psy=1 / psy_rd=1.00:0.15 / mixed_ref=1 / me_range=16 / chroma_me=1 / trellis=1 / 8x8dct=1 / cqm=0 / deadzone=21,11 / fast_pskip=1 / chroma_qp_offset=-3 / threads=12 / lookahead_threads=2 / sliced_threads=0 / nr=0 / decimate=1 / interlaced=0 / bluray_compat=0 / constrained_intra=0 / bframes=3 / b_pyramid=2 / b_adapt=1 / b_bias=0 / direct=1 / weightb=1 / open_gop=0 / weightp=2 / keyint=240 / keyint_min=24 / scenecut=40 / intra_refresh=0 / rc_lookahead=40 / rc=2pass / mbtree=1 / bitrate=2499 / ratetol=1.0 / qcomp=0.60 / qpmin=0 / qpmax=69 / qpstep=4 / cplxblur=20.0 / qblur=0.5 / ip_ratio=1.40 / aq=1:1.00
Default : Yes
Forced : No

Audio #1
ID : 2
Format : AC-3
Format/Info : Audio Coding 3
Mode extension : CM (complete main)
Format settings, Endianness : Big
Codec ID : A_AC3
Duration : 1 h 46 min
Bit rate mode : Constant
Bit rate : 192 kb/s
Channel(s) : 2 channels
Channel positions : Front: L R
Sampling rate : 48.0 kHz
Frame rate : 31.250 FPS (1536 spf)
Compression mode : Lossy
Stream size : 146 MiB (7%)
Title : НТН
Language : Ukrainian
Default : Yes
Forced : Yes

Audio #2
ID : 3
Format : AC-3
Format/Info : Audio Coding 3
Mode extension : CM (complete main)
Format settings, Endianness : Big
Codec ID : A_AC3
Duration : 1 h 46 min
Bit rate mode : Constant
Bit rate : 192 kb/s
Channel(s) : 2 channels
Channel positions : Front: L R
Sampling rate : 48.0 kHz
Frame rate : 31.250 FPS (1536 spf)
Compression mode : Lossy
Stream size : 146 MiB (7%)
Language : French
Default : No
Forced : No
Джерело:
За запис з ТБ дякую пану Bohdan237
Особиста оцінка: дивитись цей фільм - одне задоволення


Срібний реліз (на рейтинг впливає 50% завантаженого)
 Трекер:    Зареєстрований   

Завантажити / скачати фільм українською



відео для новачків



 Зареєстрований:   2020-05-22 23:21
 Розмір:   2.15 GB 
 Оцінка фільму:   9.8/10 (Голосів: 11)
   
601сан 
Поважний учасник


З нами з: 22.05.12
Востаннє: 10.07.20
Повідомлень: 233

2020-05-19 05:41  
Будуть усі три фільми ?.
Arsenfpu 
Відео Гуртом - фільмокрай
Відео Гуртом - фільмокрай


З нами з: 30.04.09
Востаннє: 10.07.20
Повідомлень: 7049

2020-05-19 06:16  
601сан
В програмі показ лише першої частини

601сан 
Поважний учасник


З нами з: 22.05.12
Востаннє: 10.07.20
Повідомлень: 233

2020-05-19 08:35  
Arsenfpu
Дякую.

bot 
робот


З нами з: 30.09.07
Востаннє: 26.05.05
Повідомлень: 25026

2020-05-22 23:21  
Тему перенесено з Анонси релізів до форуму Фільми


Arsenfpu

Ваш часовий пояс: GMT + 2 Години

Нова тема   Відповісти