Все знову / Усе спочатку / The Do-Over (2016) 720p Eng | Sub Ukr/Eng

Нові коментарі

Нова тема   Відповісти
Автор Повідомлення
Anonymous 







2020-05-18 15:02  
Все знову / Усе спочатку / The Do-Over (2016) 720p Eng | Sub Ukr/Eng



Жанр: екшн, пригодницький, комедія
Країна: США



Кінокомпанія: Netflix
Режисер: Стівен Брілл
Актори: Адам Сендлер, Девід Спейд, Паула Пттон, Кетрін Бел, Наташа Леггеро

Сюжет:
Двоє невдах вирішують підробити свою смерть, щоб почати життя з чистого листа, але воно виявляється не таке хороше, як вони хотіли.


Тривалість: 01:47:44
Якість:
Відео:
кодек:
розмір кадру: 1280 х 692
бітрейт: 3979 кб/с

Аудіо:
мова: англійська
переклад: оригінал
кодек: 5.1
бітрейт: 640 кб/с

Субтитри:
мова: українська
тип: програмні (м'які)
формат: *.srt

Субтитри:
мова: англійська
тип: програмні (м'які)
формат: *.srt
Скріншоти (Якщо ви не дід років 70+ то останній скрін може шокувати)












MI
Format :
Format version : Version 4
File size : 3.48 GiB
Duration : 1 h 47 min
Overall bit rate : 4 621 kb/s
Encoded date : UTC 2020-05-18 12:14:31
Writing application : v46.0.0 ('No Deeper Escape') 64-bit
Writing library : libebml v1.3.10 + v1.5.2
Cover : Yes
Attachments : cover.jpg

Video
ID : 1
Format : AVC
Format/Info : Advanced Video Codec
Format profile : [email protected]
Format settings : CABAC / 8 Ref Frames
Format settings, CABAC : Yes
Format settings, Reference : 8 frames
Codec ID : V_MPEG4/ISO/AVC
Duration : 1 h 47 min
Bit rate : 3 979 kb/s
Width : 1 280 pixels
Height : 692 pixels
Display aspect ratio : 1.85:1
Frame rate mode : Constant
Frame rate : 23.976 (24000/1001) FPS
Color space : YUV
Chroma subsampling : 4:2:0
Bit depth : 8 bits
Scan type : Progressive
Bits/(Pixel*Frame) : 0.187
Stream size : 2.99 GiB (86%)
Writing library : core 148 r2692 64f4e24
Encoding settings : cabac=1 / ref=8 / deblock=1:-2:-2 / analyse=0x3:0x133 / me=umh / subme=9 / psy=1 / psy_rd=1.00:0.15 / mixed_ref=1 / me_range=16 / chroma_me=1 / trellis=2 / 8x8dct=1 / cqm=0 / deadzone=21,11 / fast_pskip=1 / chroma_qp_offset=-3 / threads=12 / lookahead_threads=1 / sliced_threads=0 / nr=0 / decimate=1 / interlaced=0 / bluray_compat=0 / constrained_intra=0 / bframes=4 / b_pyramid=2 / b_adapt=2 / b_bias=0 / direct=3 / weightb=1 / open_gop=0 / weightp=2 / keyint=240 / keyint_min=23 / scenecut=40 / intra_refresh=0 / rc_lookahead=60 / rc=crf / mbtree=1 / crf=18.0 / qcomp=0.70 / qpmin=0 / qpmax=69 / qpstep=4 / ip_ratio=1.40 / aq=3:0.80
Language : English
Default : Yes
Forced : No
Color range : Limited
Color primaries : BT.709
Transfer characteristics : BT.709
Matrix coefficients : BT.709

Audio
ID : 2
Format : AC-3
Format/Info : Audio Coding 3
Commercial name : Dolby Digital
Codec ID : A_AC3
Duration : 1 h 47 min
Bit rate mode : Constant
Bit rate : 640 kb/s
Channel(s) : 6 channels
Channel layout : L R C LFE Ls Rs
Sampling rate : 48.0 kHz
Frame rate : 31.250 FPS (1536 SPF)
Compression mode : Lossy
Stream size : 493 MiB (14%)
Language : English
Service kind : Complete Main
Default : No
Forced : No

Text #1
ID : 3
Format : UTF-8
Codec ID : S_TEXT/UTF8
Codec ID/Info : UTF-8 Plain Text
Duration : 1 h 47 min
Bit rate : 103 b/s
Count of elements : 1725
Stream size : 81.5 KiB (0%)
Title : Netflix
Language : Ukrainian
Default : Yes
Forced : No

Text #2
ID : 4
Format : UTF-8
Codec ID : S_TEXT/UTF8
Codec ID/Info : UTF-8 Plain Text
Duration : 1 h 39 min
Bit rate : 95 b/s
Count of elements : 1991
Stream size : 69.8 KiB (0%)
Language : English
Default : No
Forced : No
Подяка: за українізований постер DJ Feba
Джерело:
Особиста оцінка: 0 - не дивився


 Трекер:    Зареєстрований   

Завантажити / скачати фільм українською



відео для новачків



 Зареєстрований:   2020-05-18 15:02
 Розмір:   3.48 GB 
 Оцінка фільму:   9.7/10 (Голосів: 7)
   
Dracula87 
Новенький


З нами з: 04.01.10
Востаннє: 28.11.20
Повідомлень: 12

2020-05-18 17:35  
Як мені розбачити останній кадр Wide grin? Нагадує очі равлика Wide grin
DJ Feba 
Новенький


З нами з: 13.10.18
Востаннє: 02.12.20
Повідомлень: 8

2020-05-20 19:06  
Українізований постер

Anonymous 







2020-05-20 19:16  
DJ Feba
дякую)

Ваш часовий пояс: GMT + 2 Години

Нова тема   Відповісти