Меркурій в небезпеці / Mercury Rising (1998) AVC Ukr/Eng | sub Eng

Нові коментарі

Нова тема   Відповісти
Автор Повідомлення
Arsenfpu 
Відео Гуртом - фільмокрай
Відео Гуртом - фільмокрай


З нами з: 30.04.09
Востаннє: 02.07.20
Повідомлень: 7028

2020-05-17 23:45  
Меркурій в небезпеці / Mercury Rising (1998) AVC Ukr/Eng | sub Eng

Меркурій в небезпеці / Mercury Rising (1998) AVC Ukr/Eng | sub Eng


Жанр: екшн, кримінальний, драма, трилер
Країна: США



Кінокомпанія: Universal Pictures, Imagine Entertainment
Режисер: Гарольд Беккер
Актори: Брюс Вілліс, Алек Болдвін, Міко Г'юз, Чі МакБрайд, Кім Дікенс, Роберт Стентон, Бодхі Елфмен, Кіррі Престон, Ліндсі Гінтер, Пітер Стормар, Кевін Конуей, Джон Керролл Лінч, Келлі Хазен, Джон Домен, Річард Ніхль, Чад Ліндберг, Хенк Харріс, Джеймс МакДональд, Камрін Менхейм, Джек Конл

Сюжет:
Колишній співробітник ФБР Арт Джеффріс захищає від безжалісних федеральних агентів Саймона, дев'ятирічного хлопчика, що зумів розкрити новий, «непіддатливий дешифруванню» урядовий код. Саймон може читати «Меркурій», новітній шифрувальний код, так само легко, як інші діти читають книги. Ці здібності ставлять під загрозу сам сенс існування новітньої розробки вартістю мільярд доларів, особливо якщо вороги Сполучених Штатів дізнаються про незвичайного хлопчика і захоплять його. Голова Програми Нік Кудроу наказує усунути «загрозу безпеки країни», але він не враховує, що в справу втрутиться Джеффріс. Переслідувані кривавими вбивцями, Саймон і Джеффріс розуміють, що нікому довіряти не можна. Час працює не на них, і детектив вирішує, що єдина надія на порятунок - використовувати дивні здібності Саймона і призвати вбивць до відповіді.


Тривалість: 01:51:27
Якість:
Відео:
кодек:
розмір кадру: 1024 х 434
бітрейт: 2300 кб/с

Аудіо # 1:
мова: українська
переклад: багатоголосий закадровий ,
кодек: 2.0
бітрейт: 192 кб/с

Аудіо # 2:
мова: англійська
переклад: оригінал
кодек: 2.0
бітрейт: 192 кб/с

Субтитри:
мова: англійська
тип: програмні (м'які)
формат: *.srt
Скріншоти














Про файл
General
Unique ID : 202809306351713139101028076457340553528 (0x9893A6CFEF08B8854CDE5B468EA9C938)
Complete name : C:\Mercury Rising (1998) [UkrEng] AVC [Hurtom].
Format :
Format version : Version 4 / Version 2
File size : 2.09 GiB
Duration : 1 h 51 min
Overall bit rate : 2 686 kb/s
Movie name : Меркурій в небезпеці / Mercury Rising (1998)
Encoded date : UTC 2020-05-17 20:23:22
Writing application : v21.0.0 ('Tardigrades Will Inherit The Earth') 32-bit
Writing library : libebml v1.3.5 + v1.4.8
Cover : Yes
Attachments : cover.jpg

Video
ID : 1
Format : AVC
Format/Info : Advanced Video Codec
Format profile : [email protected]
Format settings, CABAC : Yes
Format settings, ReFrames : 8 frames
Codec ID : V_MPEG4/ISO/AVC
Duration : 1 h 51 min
Bit rate : 2 300 kb/s
Width : 1 024 pixels
Height : 434 pixels
Display aspect ratio : 2.35:1
Frame rate mode : Constant
Frame rate : 23.976 FPS
Color space : YUV
Chroma subsampling : 4:2:0
Bit depth : 8 bits
Scan type : Progressive
Bits/(Pixel*Frame) : 0.216
Stream size : 1.79 GiB (86%)
Writing library : core 125 r2208 d9d2288
Encoding settings : cabac=1 / ref=8 / deblock=1:-2:-2 / analyse=0x3:0x133 / me=umh / subme=11 / psy=1 / psy_rd=1.00:0.15 / mixed_ref=1 / me_range=48 / chroma_me=0 / trellis=2 / 8x8dct=1 / cqm=0 / deadzone=21,11 / fast_pskip=0 / chroma_qp_offset=-3 / threads=6 / lookahead_threads=1 / sliced_threads=0 / nr=0 / decimate=0 / interlaced=0 / bluray_compat=0 / constrained_intra=0 / bframes=8 / b_pyramid=2 / b_adapt=2 / b_bias=0 / direct=3 / weightb=1 / open_gop=1 / weightp=2 / keyint=240 / keyint_min=23 / scenecut=40 / intra_refresh=0 / rc_lookahead=50 / rc=2pass / mbtree=1 / bitrate=2300 / ratetol=1.0 / qcomp=0.60 / qpmin=0 / qpmax=69 / qpstep=4 / cplxblur=20.0 / qblur=0.5 / ip_ratio=1.40 / aq=1:1.00
Language : English
Default : Yes
Forced : No

Audio #1
ID : 2
Format : AC-3
Format/Info : Audio Coding 3
Mode extension : CM (complete main)
Format settings, Endianness : Big
Codec ID : A_AC3
Duration : 1 h 51 min
Bit rate mode : Constant
Bit rate : 192 kb/s
Channel(s) : 2 channels
Channel positions : Front: L R
Sampling rate : 48.0 kHz
Frame rate : 31.250 FPS (1536 spf)
Compression mode : Lossy
Stream size : 153 MiB (7%)
Title : 2+2, Україна
Language : Ukrainian
Default : Yes
Forced : Yes

Audio #2
ID : 3
Format : AC-3
Format/Info : Audio Coding 3
Mode extension : CM (complete main)
Format settings, Endianness : Big
Codec ID : A_AC3
Duration : 1 h 51 min
Bit rate mode : Constant
Bit rate : 192 kb/s
Channel(s) : 2 channels
Channel positions : Front: L R
Sampling rate : 48.0 kHz
Frame rate : 31.250 FPS (1536 spf)
Compression mode : Lossy
Stream size : 153 MiB (7%)
Language : English
Default : No
Forced : No

Text
ID : 4
Format : UTF-8
Codec ID : S_TEXT/UTF8
Codec ID/Info : UTF-8 Plain Text
Duration : 1 h 42 min
Bit rate : 57 b/s
Count of elements : 1402
Stream size : 42.9 KiB (0%)
Title : Eng
Language : English
Default : No
Forced : No

Menu
00:00:00.000 : en:00:00:00.000
00:08:45.358 : en:00:08:45.358
00:09:41.581 : en:00:09:41.581
00:11:19.554 : en:00:11:19.554
00:14:16.814 : en:00:14:16.814
00:20:00.866 : en:00:20:00.866
00:23:35.414 : en:00:23:35.414
00:28:00.095 : en:00:28:00.095
00:30:51.391 : en:00:30:51.391
00:35:19.034 : en:00:35:19.034
00:38:59.254 : en:00:38:59.254
00:43:10.713 : en:00:43:10.713
00:47:39.982 : en:00:47:39.982
00:48:51.387 : en:00:48:51.387
00:50:38.285 : en:00:50:38.285
00:53:38.966 : en:00:53:38.966
00:56:18.250 : en:00:56:18.250
01:00:49.855 : en:01:00:49.855
01:02:39.965 : en:01:02:39.965
01:06:01.166 : en:01:06:01.166
01:07:53.194 : en:01:07:53.194
01:09:35.004 : en:01:09:35.004
01:13:33.576 : en:01:13:33.576
01:16:21.869 : en:01:16:21.869
01:19:52.913 : en:01:19:52.913
01:23:31.673 : en:01:23:31.673
01:29:07.175 : en:01:29:07.175
01:34:56.357 : en:01:34:56.357
01:37:55.578 : en:01:37:55.578
01:40:44.747 : en:01:40:44.747
01:42:49.914 : en:01:42:49.914
01:43:57.898 : en:01:43:57.898
01:46:35.723 : en:01:46:35.723
Джерело:
За запис з ТБ дякую пану Bohdan237
Особиста оцінка: не дивився


Срібний реліз (на рейтинг впливає 50% завантаженого)
 Трекер:    Зареєстрований   

Завантажити / скачати фільм українською



відео для новачків



 Зареєстрований:   2020-05-17 23:45
 Розмір:   2.09 GB 
 Оцінка фільму:   10/10 (Голосів: 5)
   
watcher3105 
Частий відвідувач


З нами з: 21.01.17
Востаннє: 29.06.20
Повідомлень: 36

2020-05-21 14:32  
фільм просто супер! 10/10
Ваш часовий пояс: GMT + 2 Години

Нова тема   Відповісти