Останній мисливець на драконів (Останній вбивця драконів) / The Last Dragonslayer (2016) 1080p Ukr/Eng

Нові коментарі

Нова тема   Відповісти
Автор Повідомлення
Anonymous 







2020-05-17 22:56  
Останній мисливець на драконів (Останній вбивця драконів) / The Last Dragonslayer (2016) 1080p Ukr/Eng

Останній мисливець на драконів (Останній вбивця драконів) / The Last Dragonslayer (2016) 1080p Ukr/Eng


Жанр: пригодницький, комедія, казка
Країна: Велика Британія



Кінокомпанія: Blueprint Pictures
Режисер: Джеймі Магнус Стоун
Актори: Аділь Ахтар, Метт Беррі, Даніель Бьеліч, Джон Бредлі, Ендрю Бачана, Джилл Бьюкенен, Фібі Кемпбелл, Колін Майкл Кармайкл, Елізабет Чан, Анна Ченселлор

Сюжет:
За мотивами однойменного роману Джаспера Ффорде. Чарівник Великий Замбіні рятує сироту Дженніфер Стрейндж від того, щоб її відправили на війну з тролями. Він привозить дівчинку в свій особняк, в якому живуть його помічники Мубін і Моугон. Вони надають магічні послуги населенню королівства Херефорд. Дженніфер стає ученицею Замбіні, а чарівник замінює їй батька. Через роки. Рівень магії постійно падає, а разом з ним і можливості чарівників. До того ж, науково-технічний прогрес не стоїть на місці, і тепер за допомогою електрики і машин люди навчилися робити те, що раніше можна було створити лише за допомогою надприродних сил. Замбіні пов'язує поступове зникнення магії з вимиранням драконів, що мешкають навколо Херефорда. Раніше ці істоти панували в небі, однак тепер в живих залишився останній з них. Раптово Замбіні таємничим чином зникає. А незабаром у всіх магів королівства трапляється пророче бачення - останній вогнедихаючий ящір загине від руки вбивці драконів. Дженніфер вирушає на його пошуки, щоб переконати не робити цього. Дівчина побоюється, що в такому випадку чари остаточно зникнуть. Але, на свій подив, вона виявляє, що сама є вбивцею драконів, і саме їй судилося виконати пророцтво. Через це на неї звертає увагу Снодд - жадібний король Херефорда. Монарх хоче захопити драконячі землі. У той час як сама Дженніфер сподівається за допомогою дракона звільнити Замбіні, який потрапив в магічну пастку ...


Тривалість: 01:40:42
Якість:
Відео:
кодек:
розмір кадру: 1920 х 1080
бітрейт: 4803 кб/с

Аудіо # 1:
мова: українська
переклад: багатоголосий закадровий
кодек: 2.0
бітрейт: 192 кб/с

Аудіо # 2:
мова: англійська
переклад: оригінал
кодек: 2.0
бітрейт: 128 кб/с

Джерело озвучення:

За запис звуку з ТБ дякуємо пану Bohdan237
Звук взято з релізу
Info
Код:
General
Unique ID                                : 241376765404342823646089024102175015296 (0xB597795A7FC0C172FE9086BE934F0180)
Complete name                            : The Last Dragonslayer (2016) 1080p [Ukr_Eng] [Hurtom].
Format                                   :
Format version                           : Version 4
File size                                : 3.60 GiB
Duration                                 : 1 h 40 min
Overall bit rate mode                    : Variable
Overall bit rate                         : 5 125 kb/s
Movie name                               : Останній мисливець на драконів (2016)
Encoded date                             : UTC 2020-05-17 19:24:42
Writing application                      : v30.1.0 ('Forever And More') 64-bit
Writing library                          : libebml v1.3.6 + v1.4.9
Cover                                    : Yes
Attachments                              : cover.jpg

Video
ID                                       : 1
Format                                   : AVC
Format/Info                              : Advanced Video Codec
Format profile                           : [email protected]
Format settings                          : CABAC / 2 Ref Frames
Format settings, CABAC                   : Yes
Format settings, ReFrames                : 2 frames
Format settings, GOP                     : M=3, N=50
Codec ID                                 : V_MPEG4/ISO/AVC
Duration                                 : 1 h 40 min
Bit rate mode                            : Variable
Bit rate                                 : 4 803 kb/s
Maximum bit rate                         : 7 200 kb/s
Width                                    : 1 920 pixels
Height                                   : 1 080 pixels
Display aspect ratio                     : 16:9
Frame rate mode                          : Constant
Frame rate                               : 25.000 FPS
Color space                              : YUV
Chroma subsampling                       : 4:2:0
Bit depth                                : 8 bits
Scan type                                : Progressive
Bits/(Pixel*Frame)                       : 0.093
Stream size                              : 3.38 GiB (94%)
Language                                 : English
Default                                  : No
Forced                                   : No

Audio #1
ID                                       : 2
Format                                   : AC-3
Format/Info                              : Audio Coding 3
Commercial name                          : Dolby Digital
Codec ID                                 : A_AC3
Duration                                 : 1 h 40 min
Bit rate mode                            : Constant
Bit rate                                 : 192 kb/s
Channel(s)                               : 2 channels
Channel layout                           : L R
Sampling rate                            : 48.0 kHz
Frame rate                               : 31.250 FPS (1536 SPF)
Bit depth                                : 16 bits
Compression mode                         : Lossy
Delay relative to video                  : -200 ms
Stream size                              : 138 MiB (4%)
Language                                 : Ukrainian
Service kind                             : Complete Main
Default                                  : Yes
Forced                                   : Yes

Audio #2
ID                                       : 3
Format                                   : AC-3
Format/Info                              : Audio Coding 3
Commercial name                          : Dolby Digital
Codec ID                                 : A_AC3
Duration                                 : 1 h 40 min
Bit rate mode                            : Constant
Bit rate                                 : 128 kb/s
Channel(s)                               : 2 channels
Channel layout                           : L R
Sampling rate                            : 48.0 kHz
Frame rate                               : 31.250 FPS (1536 SPF)
Bit depth                                : 16 bits
Compression mode                         : Lossy
Stream size                              : 92.2 MiB (2%)
Language                                 : English
Service kind                             : Complete Main
Default                                  : No
Forced                                   : No

Menu
00:00:00.000                             : en:1
00:07:31.000                             : en:2
00:16:33.000                             : en:3
00:23:23.000                             : en:4
00:32:07.000                             : en:5
00:39:14.000                             : en:6
00:47:24.000                             : en:7
00:54:51.000                             : en:8
01:02:46.000                             : en:9
01:09:28.000                             : en:10
01:17:57.000                             : en:11
01:26:59.000                             : en:12

Скріншоти





Джерело:


 Трекер:    Зареєстрований   

Завантажити / скачати фільм українською



відео для новачків



 Зареєстрований:   2020-05-17 22:56
 Розмір:   3.6 GB 
 Оцінка фільму:   10/10 (Голосів: 2)
   
Ваш часовий пояс: GMT + 2 Години

Нова тема   Відповісти