Усі жінки - відьми (Сезон 2) / Charmed (Season 2) (1999-2000) 1080p Ukr/Eng | sub Eng

Нові коментарі

Нова тема   Відповісти
Автор Повідомлення
Anonymous 







2020-05-17 17:44  
Усі жінки - відьми (Сезон 2) / Charmed (Season 2) (1999-2000) 1080p Ukr/Eng | sub Eng

Усі жінки - відьми (Сезон 2) / Charmed (Season 2) (1999-2000) 1080p Ukr/Eng | sub Eng


Жанр: драма, фентезі, містика
Країна: США



Кінокомпанія: Spelling Television, Northshore Productions, Paramount Pictures
Режисер: Констенс М. Бердж (Constance M. Burge)
Актори: Шеннон Догерті (Shannen Doherty), Голлі Марі Коумз (Holly Marie Combs ), Алісса Мілано (Alyssa Milano) та інші

Сюжет:
Усе починається з того, як одна з героїнь повертається у Сан-Франциско до старших сестер. Тієї ж ночі Прю, Пайпер і Фібі загадковим чином знаходять у будинку своєї бабусі чаклунську книжку… Вона дає поштовх до розвитку надзвичайних здібностей у сестер, причому в кожної дар свій, неповторний. Одна може зупиняти час, друга - пересувати предмети на відстані, третя - передбачати майбутнє. Життя сестер сповнюється загадками, а ще дивовижними і небезпечними пригодами.


Тривалість: 1 серія: ~43 хв. (цілком серій: 22)
Перелік серій
01) Witch Trial
02) Morality Bites
03) The Painted World
04) The Devil's Music
05) She's a Man, Baby, a Man!
06) That Old Black Magic
07) They're Everywhere
08) P3 H2O
09) Ms. Hellfire
10) Heartbreak City
11) Reckless Abandon
12) Awakened
13) Animal Pragmatism
14) Pardon My Past
15) Give Me a Sign
16) Murphy's Luck
17) How to Make a Quilt Out of Americans
18) Chick Flick
19) Ex Libris
20) Astral Monkey
21) Apocalypse, Not
22) Be Careful What You Witch For
Якість:
Відео:
кодек:
розмір кадру: 1920 х 1080
бітрейт: ~9200 кб/с

Аудіо # 1:
мова: українська
переклад: багатоголосий закадровий
кодек: 2.0
бітрейт: 192 кб/с

Аудіо # 2:
мова: англійська
переклад: оригінал
кодек: 2.0
бітрейт: 192 кб/с

Джерело озвучення:


Субтитри:
мова: англійська
тип: програмні (м'які)
формат: *.srt
Info
General
Unique ID : 9344193300895072624896780466535887097 (0x707A04C931048A830DF3B63DD2170F9)
Complete name : F:\Support\series\Charmed (Season 2) [, 1080p, Ukr, Eng]\Charmed. S02E01. Witch Trial.
Format :
Format version : Version 4
File size : 2.94 GiB
Duration : 43 min 9 s
Overall bit rate : 9 739 kb/s
Encoded date : UTC 2020-04-20 15:29:26
Writing application : v45.0.0 ('Heaven in Pennies') 64-bit
Writing library : libebml v1.3.10 + v1.5.2

Video
ID : 1
Format : AVC
Format/Info : Advanced Video Codec
Format profile : [email protected]
Format settings : CABAC / 4 Ref Frames
Format settings, CABAC : Yes
Format settings, Reference : 4 frames
Codec ID : V_MPEG4/ISO/AVC
Duration : 43 min 9 s
Bit rate : 9 359 kb/s
Width : 1 920 pixels
Height : 1 080 pixels
Display aspect ratio : 16:9
Frame rate mode : Constant
Frame rate : 23.976 (24000/1001) FPS
Color space : YUV
Chroma subsampling : 4:2:0
Bit depth : 8 bits
Scan type : Progressive
Bits/(Pixel*Frame) : 0.188
Stream size : 2.82 GiB (96%)
Writing library : core 158 r2988 7817004
Encoding settings : cabac=1 / ref=4 / deblock=1:-3:-3 / analyse=0x3:0x133 / me=umh / subme=8 / psy=1 / psy_rd=1.00:0.00 / mixed_ref=1 / me_range=16 / chroma_me=1 / trellis=1 / 8x8dct=1 / cqm=0 / deadzone=21,11 / fast_pskip=0 / chroma_qp_offset=-2 / threads=30 / lookahead_threads=5 / sliced_threads=0 / nr=0 / decimate=1 / interlaced=0 / bluray_compat=0 / constrained_intra=0 / bframes=3 / b_pyramid=2 / b_adapt=1 / b_bias=0 / direct=3 / weightb=1 / open_gop=0 / weightp=2 / keyint=250 / keyint_min=23 / scenecut=40 / intra_refresh=0 / rc_lookahead=50 / rc=2pass / mbtree=1 / bitrate=9359 / ratetol=1.0 / qcomp=0.60 / qpmin=0 / qpmax=69 / qpstep=4 / cplxblur=20.0 / qblur=0.5 / vbv_maxrate=62500 / vbv_bufsize=78125 / nal_hrd=none / filler=0 / ip_ratio=1.40 / aq=1:1.00
Language : English
Default : Yes
Forced : No

Audio #1
ID : 2
Format : AC-3
Format/Info : Audio Coding 3
Commercial name : Dolby Digital
Codec ID : A_AC3
Duration : 43 min 9 s
Bit rate mode : Constant
Bit rate : 192 kb/s
Channel(s) : 2 channels
Channel layout : L R
Sampling rate : 48.0 kHz
Frame rate : 31.250 FPS (1536 SPF)
Compression mode : Lossy
Stream size : 59.3 MiB (2%)
Title : 1+1
Language : Ukrainian
Service kind : Complete Main
Default : Yes
Forced : No

Audio #2
ID : 3
Format : AC-3
Format/Info : Audio Coding 3
Commercial name : Dolby Digital
Codec ID : A_AC3
Duration : 43 min 8 s
Bit rate mode : Constant
Bit rate : 192 kb/s
Channel(s) : 2 channels
Channel layout : L R
Sampling rate : 48.0 kHz
Frame rate : 31.250 FPS (1536 SPF)
Compression mode : Lossy
Stream size : 59.3 MiB (2%)
Language : English
Service kind : Complete Main
Default : No
Forced : No

Text
ID : 4
Format : UTF-8
Codec ID : S_TEXT/UTF8
Codec ID/Info : UTF-8 Plain Text
Duration : 42 min 5 s
Bit rate : 82 b/s
Count of elements : 625
Stream size : 25.4 KiB (0%)
Language : English
Default : No
Forced : No

Menu
00:00:00.000 : :Chapter 1
00:04:57.130 : :Chapter 2
00:16:18.978 : :Chapter 3
00:25:14.805 : :Chapter 4
00:34:54.467 : :Chapter 5
00:42:27.962 : :Chapter 6
Скріншоти
Джерело: &
Особиста оцінка: 0 - надто давно дивився, щоб оцінювати





Золотий реліз (завантажене не впливає на рейтинг)
 Трекер:    Зареєстрований   

Завантажити / скачати серіал українською



відео для новачків



 Зареєстрований:   2020-05-17 17:44
 Розмір:   64.54 GB 
 Оцінка серіалу:   10/10 (Голосів: 7)
   
igor911 
Модератор відео


З нами з: 18.01.08
Востаннє: 24.11.20
Повідомлень: 15080

2020-05-17 18:23  
Цитата:
Джерело:

Як підписувати наші релізи

Oxysims 
Новенький


З нами з: 07.11.16
Востаннє: 25.11.20
Повідомлень: 11

2020-05-22 13:51  
Дякую!Дякую!Дякую!
Meshko_roma1 
Новенький


З нами з: 15.11.15
Востаннє: 20.11.20
Повідомлень: 3

2020-05-23 21:25  
Супер!) А третій сезон буде?)
Anonymous 







2020-05-23 21:34  
Meshko_roma1 написано:
А третій сезон буде?)

Блюрея ще нема. Хоча й обіцяють.
Чи буде реліз з українським звуком - не знаю. В мене бажання синхронізувати далі звук під блюрей нема, а чи зробить це хтось інший - питання...

Meshko_roma1 
Новенький


З нами з: 15.11.15
Востаннє: 20.11.20
Повідомлень: 3

2020-05-24 07:06  
Буде ще хтось на роздачі? бо швидкості нема, за ніч лиш 6 ГБ скачав(
LastExile 
Частий відвідувач


З нами з: 25.09.10
Востаннє: 13.09.20
Повідомлень: 26

2020-05-30 21:33  
ОЙ не ВЖЕ!
Щастя є!

Додано через 1 хвилину 29 секунд:

Anonymous написано:
Чи буде реліз з українським звуком - не знаю. В мене бажання синхронізувати далі звук під блюрей нема, а чи зробить це хтось інший - питання...

Шкода...
Бажаю вам натхнення!

Deiv 
Поважний учасник


З нами з: 15.07.16
Востаннє: 23.11.20
Повідомлень: 186

2020-07-14 17:21  
Хтось володіє інформацією - коли будуть наступні сезони в BluRay?
Anonymous 







2020-07-14 17:34  
Deiv написано:
Хтось володіє інформацією - коли будуть наступні сезони в BluRay?

Поки інформації нема. Подейкують про 3-4 квартал цього року. Це якщо ви про вихід серіалу на блюреї взагалі. Реліз тут - то вже інша справа.

Deiv 
Поважний учасник


З нами з: 15.07.16
Востаннє: 23.11.20
Повідомлень: 186

2020-07-14 18:09  
Anonymous-Подейкують про 3-4 квартал цього року.

Чудово . Дякую. Із задоволенням переглядаю серіал . Якщо буде потрібна допомога синхронізувати серіал , то залюбки допоможу . Звертайтесь в приват . Гуртом ми зробимо все.

Anonymous 







2020-07-14 20:06  
Deiv написано:
Якщо буде потрібна допомога синхронізувати серіал , то залюбки допоможу

Так роби увесь Wink (2) . Мені щось нецікаво цим серіалом займатися.

vigilante 
Новенький


З нами з: 05.02.13
Востаннє: 24.11.20
Повідомлень: 19

2020-10-31 21:24  
Вже вийшли всі сезони в 1080p.
Хтось вже взявся чи плануэ робити для толоки?

Anonymous 







2020-10-31 22:41  
Ага, несподівано решту сезонів виклали онлайн. Але, гадаю, до виходу блюрея сенсу рипатися нема.

P.S. Що то за гівно замість титульної пісні в ріпах з Peacock?

Oxysims 
Новенький


З нами з: 07.11.16
Востаннє: 25.11.20
Повідомлень: 11

2020-11-21 01:27  
Я особисто для себе звела 3-й сезон та закінчую зводити 4-й. Потім піду по інших сезонах.
marinich 
Частий відвідувач


З нами з: 05.03.11
Востаннє: 24.11.20
Повідомлень: 44

2020-11-22 16:23  
Oxysims
Є інші сезони в HD?

Deiv 
Поважний учасник


З нами з: 15.07.16
Востаннє: 23.11.20
Повідомлень: 186

2020-11-22 16:39  
Oxysims написано:
Я особисто для себе звела 3-й сезон та закінчую зводити 4-й. Потім піду по інших сезонах.

Ви зводите 1080p?, бо BluRay я не бачу на торентах - а по якості гірший. І ще , якщо вже звели 3 сезон, то зробіть реліз.

Oxysims 
Новенький


З нами з: 07.11.16
Востаннє: 25.11.20
Повідомлень: 11

2020-11-22 19:33  
Так, я звожу . Я спробую створити реліз.

Додано через 1 годину 56 хвилин 4 секунди:

marinich

1080p

Ваш часовий пояс: GMT + 2 Години

Нова тема   Відповісти