Ґалвестон / Galveston (2018) AVC 2xUkr/Eng | Sub Eng

Нові коментарі

Нова тема   Відповісти
Автор Повідомлення
Arsenfpu 
Відео Гуртом - фільмокрай
Відео Гуртом - фільмокрай


З нами з: 30.04.09
Востаннє: 03.07.20
Повідомлень: 7029

2020-05-17 15:17  
Ґалвестон / Galveston (2018) AVC 2xUkr/Eng | Sub Eng

Ґалвестон / Galveston (2018) AVC 2xUkr/Eng | Sub Eng


Жанр: бойовик, драма, кримінальний, трилер
Країна: США



Кінокомпанія: Jean Doumanian Productions, Low Spark Films
Режисер: Мелані Лоран
Актори: Лілі Рейнхарт, Ель Феннінг, Бен Фостер, Марія Вальверде, Бо Бріджес, Роберт Арамайо, Едеперо Одуйє, Тінслі Прайс, Еністон Прайс, Хайді Левандовскі

Сюжет:
Ґальвестон - це захоплююча американська кінострічка в жанрі кримінального бойовика, в основі якої лежить роман Ніка Піццолатто. У центрі сюжетної лінії Рой Кеді, сорокарічний кілер з Нового Орлеана. Одного разу головний герой дізнається, що смертельно хворий. У нього рак легенів. Ось тільки більше чоловіка хвилює той факт, що від нього хоче здихатися начальник. Тепер Рой змушений тікати з молодою дівчиною легкої поведінки Ракель, сподіваючись, що уникне неприємної долі. Але до чого призведе подібна витівка Роя Кеді? Чи вплине загальний стан здоров'я на виконання задуманого? Чи знайде бос Роя? Та й навіщо йому така супутниця?


Тривалість: 01:33:35
Якість:
Відео:
кодек:
розмір кадру: 1 024 х 428
бітрейт: 1 849 кб/с

Аудіо # 1:
мова: українська
переклад: багатоголосий закадровий
кодек: 2.0
бітрейт: 192 кб/с

Аудіо # 2:
мова: українська
переклад: багатоголосий закадровий DniproFilm
кодек: 5.1
бітрейт: 384 кб/с

Аудіо # 3:
мова: англійська
переклад: оригінал
кодек: 2.0
бітрейт: 384 кб/с

Субтитри:
мова: англійська
тип: програмні (м'які)
формат: *.srt
Скріншоти














Про файл
General
Unique ID : 94862508294171995279865362500638470978 (0x475DDAC2A1B1DC07183B2187B55BF342)
Complete name : C:\Galveston (2018) [2xUkr,Eng] AVC [Hurtom].
Format :
Format version : Version 4 / Version 2
File size : 1.71 GiB
Duration : 1 h 33 min
Overall bit rate : 2 618 kb/s
Movie name : Ґальвестон / Galveston (2018)
Encoded date : UTC 2020-05-17 09:50:05
Writing application : v21.0.0 ('Tardigrades Will Inherit The Earth') 32-bit
Writing library : libebml v1.3.5 + v1.4.8
Cover : Yes
Attachments : cover.jpg

Video
ID : 1
Format : AVC
Format/Info : Advanced Video Codec
Format profile : [email protected]
Format settings, CABAC : Yes
Format settings, ReFrames : 10 frames
Codec ID : V_MPEG4/ISO/AVC
Duration : 1 h 33 min
Bit rate : 1 849 kb/s
Width : 1 024 pixels
Height : 428 pixels
Display aspect ratio : 2.40:1
Frame rate mode : Constant
Frame rate : 24.000 FPS
Color space : YUV
Chroma subsampling : 4:2:0
Bit depth : 8 bits
Scan type : Progressive
Bits/(Pixel*Frame) : 0.176
Stream size : 1.21 GiB (71%)
Writing library : core 146 r2538 121396c
Encoding settings : cabac=1 / ref=10 / deblock=1:-3:-3 / analyse=0x3:0x113 / me=umh / subme=11 / psy=1 / psy_rd=0.99:0.04 / mixed_ref=1 / me_range=48 / chroma_me=1 / trellis=2 / 8x8dct=1 / cqm=0 / deadzone=21,11 / fast_pskip=1 / chroma_qp_offset=-3 / threads=6 / lookahead_threads=1 / sliced_threads=0 / nr=0 / decimate=1 / interlaced=0 / bluray_compat=0 / constrained_intra=0 / bframes=11 / b_pyramid=2 / b_adapt=2 / b_bias=0 / direct=3 / weightb=1 / open_gop=0 / weightp=2 / keyint=240 / keyint_min=24 / scenecut=40 / intra_refresh=0 / rc_lookahead=40 / rc=2pass / mbtree=0 / bitrate=1849 / ratetol=1.0 / qcomp=0.60 / qpmin=0 / qpmax=69 / qpstep=4 / cplxblur=20.0 / qblur=0.5 / vbv_maxrate=50000 / vbv_bufsize=62500 / nal_hrd=none / filler=0 / ip_ratio=1.40 / pb_ratio=1.30 / aq=1:1.00
Language : English
Default : Yes
Forced : No

Audio #1
ID : 2
Format : AC-3
Format/Info : Audio Coding 3
Mode extension : CM (complete main)
Format settings, Endianness : Big
Codec ID : A_AC3
Duration : 1 h 33 min
Bit rate mode : Constant
Bit rate : 192 kb/s
Channel(s) : 2 channels
Channel positions : Front: L R
Sampling rate : 48.0 kHz
Frame rate : 31.250 FPS (1536 spf)
Compression mode : Lossy
Stream size : 129 MiB (7%)
Title : НТН
Language : Ukrainian
Default : Yes
Forced : Yes

Audio #2
ID : 3
Format : AC-3
Format/Info : Audio Coding 3
Mode extension : CM (complete main)
Format settings, Endianness : Big
Codec ID : A_AC3
Duration : 1 h 33 min
Bit rate mode : Constant
Bit rate : 384 kb/s
Channel(s) : 6 channels
Channel positions : Front: L C R, Side: L R, LFE
Sampling rate : 48.0 kHz
Frame rate : 31.250 FPS (1536 spf)
Compression mode : Lossy
Stream size : 257 MiB (15%)
Title : DniproFilm
Language : Ukrainian
Default : No
Forced : No

Audio #3
ID : 4
Format : AC-3
Format/Info : Audio Coding 3
Mode extension : CM (complete main)
Format settings, Endianness : Big
Codec ID : A_AC3
Duration : 1 h 33 min
Bit rate mode : Constant
Bit rate : 192 kb/s
Channel(s) : 2 channels
Channel positions : Front: L R
Sampling rate : 48.0 kHz
Frame rate : 31.250 FPS (1536 spf)
Compression mode : Lossy
Stream size : 129 MiB (7%)
Language : English
Default : No
Forced : No

Text #1
ID : 5
Format : UTF-8
Codec ID : S_TEXT/UTF8
Codec ID/Info : UTF-8 Plain Text
Duration : 1 h 31 min
Bit rate : 44 b/s
Count of elements : 1044
Stream size : 30.0 KiB (0%)
Title : Full
Language : English
Default : No
Forced : No

Text #2
ID : 6
Format : UTF-8
Codec ID : S_TEXT/UTF8
Codec ID/Info : UTF-8 Plain Text
Duration : 1 h 31 min
Bit rate : 45 b/s
Count of elements : 1051
Stream size : 30.8 KiB (0%)
Title : SDH
Language : English
Default : No
Forced : No

Menu
00:00:00.000 : en:Chapter 1
00:05:47.625 : en:Chapter 2
00:10:47.333 : en:Chapter 3
00:16:56.125 : en:Chapter 4
00:23:17.625 : en:Chapter 5
00:30:23.167 : en:Chapter 6
00:35:43.625 : en:Chapter 7
00:41:01.667 : en:Chapter 8
00:47:51.417 : en:Chapter 9
00:54:25.458 : en:Chapter 10
01:03:35.917 : en:Chapter 11
01:08:33.708 : en:Chapter 12
01:12:25.208 : en:Chapter 13
01:17:02.625 : en:Chapter 14
01:21:33.417 : en:Chapter 15
01:27:49.000 : en:Chapter 16
Джерело:
За запис з ТБ дякую пану Bohdan237
Особиста оцінка: не дивився


Золотий реліз (завантажене не впливає на рейтинг)
 Трекер:    Зареєстрований   

Завантажити / скачати фільм українською



відео для новачків



 Зареєстрований:   2020-05-17 15:17
 Розмір:   1.71 GB 
 Оцінка фільму:   8.9/10 (Голосів: 19)
   
Інші релізи
   Гальвестон (Ґальвестон) / Galveston (2018) 1080p Ukr/Eng | Sub Eng drop_plz  3 / 0   6.82 GB   2020-05-17 12:51 
   Ґальвестон / Galveston (2018) 1080p H.265 Ukr/Eng | Sub Eng -Star-Lord-  7 / 0   3.45 GB   2019-01-18 18:00 
   Ґальвестон / Galveston (2018) DniproFilm  10 / 0   1.17 GB   2018-12-25 03:28 
   Ґальвестон / Galveston (2018) 720p Ukr/Eng DniproFilm  3 / 0   3.21 GB   2018-12-25 03:28 
   Ґальвестон / Galveston (2018) 1080p Ukr/Eng DniproFilm  3 / 0   5.13 GB   2018-12-25 03:28 
Nickolassssssss 
VIP


З нами з: 31.05.14
Востаннє: 01.07.20
Повідомлень: 297

2020-05-20 20:58  
Доволі нуднуватий фільм з передбачуваним сюжетом, хоча деякі моменти я і не вгадав. Фінальний діалог якийсь прісний.

Дивився в озвученні DniproFilm, мені сподобалось, як завжди.

apcen 
Новенький


З нами з: 05.10.10
Востаннє: 02.07.20
Повідомлень: 10

2020-06-16 22:04  
про фільм
можливо нуднуватий, можливо прісний, ... можливо
але є одне але:
"і пізнаєте правду, а правда вас вільними зробить!
Вiд Iвана 8:32"

запість писи: для чого Він двадцятку відмотав?! правосуддя дало збій!?
пиписиси: яке на біса правосуддя, коли ти сам на сам з собою, і ти сам його чиниш (правосуддя)

Ваш часовий пояс: GMT + 2 Години

Нова тема   Відповісти