Найхолодніша гра / The Coldest Game (2019) 1080p Eng | Sub Ukr/Eng

Нові коментарі

Нова тема   Відповісти
Автор Повідомлення
ivan vyrvyvuho 
VIP


З нами з: 19.08.12
Востаннє: 29.11.20
Повідомлень: 1177

2020-05-17 12:14  
Найхолодніша гра / The Coldest Game (2019) 1080p Eng | Sub Ukr/Eng



Жанр: трилер
Країна: Польща, США



Кінокомпанія: Watchout Studio, TVN, Next Film
Режисер: Лукаш Косміцький / Łukasz Kośmicki
Актори: Білл Пуллман / Bill Pullman, Лотте Вербек / Lotte Verbeek, Джеймс Блур / James Bloor, Роберт Вєнцкевич / Robert Więckiewicz, Олексій Серебряков / Алексей Серебряков, Корі Джонсон / Corey Johnson, Ніколас Фарелл / Nicholas Farrell, Євген Сідіхін / Евгений Сидихин, Цезари Косіньський / Cezary Kosinski та інші.

Сюжет:
Під час Карибської кризи між США та СРСР має відбутися шаховий турнір. Теоретично шахи мали б знаходитися поза політикою, але скоро з'ясовується, що це зовсім навпаки. І під час найбільшого загострення у відносинах протилежних таборів має відбутися найхолодніша гра...


Тривалість: 01:43:06
Якість:
Відео:
кодек:
розмір кадру: 1920 х 1080
бітрейт: 3320 кб/с

Аудіо:
мова: англійська, російська, польська
переклад: оригінал
кодек: 5.1
бітрейт: 384 кб/с

Субтитри:
мова: українська
тип: програмні (м'які)
формат: *.srt
переклад: любительський з оригіналу ivan vyrvyvuho

Субтитри:
мова: англійська для людей з вадами слуху
тип: програмні (м'які)
формат: *.srt
Медіаінфо
General
Unique ID : 184818496553960269343076939698074890130 (0x8B0ABF67E3EA7D7359B369DC89FD2F92)
Complete name : D:\торент\The Coldest Game (2019) [Eng SubUkrEng] 1080p.
Format :
Format version : Version 4
File size : 2.65 GiB
Duration : 1 h 43 min
Overall bit rate mode : Variable
Overall bit rate : 3 675 kb/s
Movie name : The.Coldest.Game.2019.CMRG
Encoded date : UTC 2020-05-17 09:18:57
Writing application : v43.0.0 ('The Quartermaster') 64-bit
Writing library : libebml v1.3.10 + v1.5.2

Video
ID : 1
Format : AVC
Format/Info : Advanced Video Codec
Format profile : [email protected]
Format settings : CABAC / 3 Ref Frames
Format settings, CABAC : Yes
Format settings, Reference : 3 frames
Codec ID : V_MPEG4/ISO/AVC
Duration : 1 h 43 min
Bit rate mode : Variable
Bit rate : 3 320 kb/s
Maximum bit rate : 4 980 kb/s
Width : 1 920 pixels
Height : 1 080 pixels
Display aspect ratio : 16:9
Frame rate mode : Constant
Frame rate : 24.000 FPS
Color space : YUV
Chroma subsampling : 4:2:0
Bit depth : 8 bits
Scan type : Progressive
Bits/(Pixel*Frame) : 0.067
Stream size : 2.37 GiB (89%)
Writing library : core 148 r2717 0d2410d
Encoding settings : cabac=1 / ref=3 / deblock=1:0:0 / analyse=0x1:0x111 / me=umh / subme=10 / psy=1 / psy_rd=1.00:0.00 / mixed_ref=1 / me_range=24 / chroma_me=1 / trellis=2 / 8x8dct=0 / cqm=0 / deadzone=21,11 / fast_pskip=1 / chroma_qp_offset=-2 / threads=8 / lookahead_threads=1 / sliced_threads=0 / nr=0 / decimate=1 / interlaced=0 / bluray_compat=0 / stitchable=1 / constrained_intra=0 / bframes=2 / b_pyramid=0 / b_adapt=2 / b_bias=0 / direct=3 / weightb=1 / open_gop=0 / weightp=2 / keyint=250 / keyint_min=24 / scenecut=0 / intra_refresh=0 / rc_lookahead=48 / rc=2pass / mbtree=1 / bitrate=3320 / ratetol=1.0 / qcomp=0.50 / qpmin=6 / qpmax=51 / qpstep=4 / cplxblur=20.0 / qblur=0.5 / vbv_maxrate=4980 / vbv_bufsize=6640 / nal_hrd=vbr / filler=0 / ip_ratio=1.40 / aq=1:1.00
Default : Yes
Forced : No

Audio
ID : 2
Format : AC-3
Format/Info : Audio Coding 3
Commercial name : Dolby Digital
Codec ID : A_AC3
Duration : 1 h 43 min
Bit rate mode : Constant
Bit rate : 384 kb/s
Channel(s) : 6 channels
Channel layout : L R C LFE Ls Rs
Sampling rate : 48.0 kHz
Frame rate : 31.250 FPS (1536 SPF)
Bit depth : 16 bits
Compression mode : Lossy
Stream size : 283 MiB (10%)
Language : English
Service kind : Complete Main
Default : No
Forced : No

Text #1
ID : 3
Format : UTF-8
Codec ID : S_TEXT/UTF8
Codec ID/Info : UTF-8 Plain Text
Duration : 1 h 36 min
Bit rate : 81 b/s
Count of elements : 1053
Stream size : 57.6 KiB (0%)
Title : Ukr
Language : Ukrainian
Default : Yes
Forced : Yes

Text #2
ID : 4
Format : UTF-8
Codec ID : S_TEXT/UTF8
Codec ID/Info : UTF-8 Plain Text
Duration : 1 h 36 min
Bit rate : 57 b/s
Count of elements : 1141
Stream size : 40.3 KiB (0%)
Title : Eng
Language : English
Default : No
Forced : No
Скріншоти








Подяка: постер mrgalser
Джерело: &
Особиста оцінка: 7 - моїй подрузі не сподобалося, але мені так, нормальний трилер.


Золотий реліз (завантажене не впливає на рейтинг)
 Трекер:    Зареєстрований   

Завантажити / скачати фільм українською



відео для новачків



 Зареєстрований:   2020-05-17 12:14
 Розмір:   2.65 GB 
 Оцінка фільму:   10/10 (Голосів: 5)
   
Ваш часовий пояс: GMT + 2 Години

Нова тема   Відповісти