Гальвестон (Ґальвестон) / Galveston (2018) 1080p Ukr/Eng | Sub Eng

Нові коментарі

Нова тема   Відповісти
Автор Повідомлення
Anonymous 







2020-05-17 12:51  
Гальвестон (Ґальвестон) / Galveston (2018) 1080p Ukr/Eng | Sub Eng

Гальвестон (Ґальвестон) / Galveston (2018) 1080p Ukr/Eng | Sub Eng


Жанр: бойовик, трилер, драма, кримінальний
Країна: США



Кінокомпанія: Jean Doumanian Productions, Low Spark Films
Режисер: Мелані Лоран
Актори: Лілі Рейнхарт, Елль Феннінг, Бен Фостер, Марія Вальверде, Бо Бріджес, Роберт Арамайо, Едеперо Джонні Одуя, Тінслі Прайс, Енністон Прайс, Хайді Левандовскі

Сюжет:
Історія про колишнього поплічника мафіозі, який мав необережність перейти дорогу своєму впливовому босові. Ставши мішенню найманих вбивць, Кеді тікає і за збігом обставин бере відповідальність за життя ще й своєї несподіваної супутниці - зовсім молоденькою повії.


Тривалість: 01:33:16
Якість: 1080p
Відео:
кодек:
розмір кадру: 1920x804
бітрейт: 8565 кб/с

Аудіо # 1:
мова: українська
переклад: багатоголосий закадровий
кодек: 2.0
бітрейт: 192 кб/с

Аудіо # 2:
мова: англійська
переклад: оригінал
кодек: 5.1
бітрейт: 1509 кб/с

Субтитри:
мова: англійська
тип: програмні (м'які)
формат: *.srt
Info
General
Unique ID : 224804883896605253688315421827506724457 (0xA91FD883572A3361B0D534FE3CD15E69)
Complete name : E:\Toloka\2020\Galveston (2018) 1080p.
Format :
Format version : Version 4
File size : 6.82 GiB
Duration : 1 h 33 min
Overall bit rate : 10.5 Mb/s
Movie name : Galveston 2018
Encoded date : UTC 2020-05-17 09:31:40
Writing application : v6.1.0 ('Old Devil') built on Mar 4 2013 09:10:42
Writing library : libebml v1.3.0 + v1.4.0

Video
ID : 1
Format : AVC
Format/Info : Advanced Video Codec
Format profile : [email protected]
Format settings : CABAC / 5 Ref Frames
Format settings, CABAC : Yes
Format settings, RefFrames : 5 frames
Codec ID : V_MPEG4/ISO/AVC
Duration : 1 h 33 min
Bit rate : 8 565 kb/s
Width : 1 920 pixels
Height : 804 pixels
Display aspect ratio : 2.40:1
Frame rate mode : Constant
Frame rate : 23.976 (24000/1001) FPS
Color space : YUV
Chroma subsampling : 4:2:0
Bit depth : 8 bits
Scan type : Progressive
Bits/(Pixel*Frame) : 0.231
Stream size : 5.58 GiB (82%)
Writing library : core 155 r2893 b00bcaf
Encoding settings : cabac=1 / ref=5 / deblock=1:-3:-3 / analyse=0x3:0x113 / me=umh / subme=10 / psy=1 / psy_rd=1.00:0.05 / mixed_ref=1 / me_range=48 / chroma_me=1 / trellis=2 / 8x8dct=1 / cqm=0 / deadzone=21,11 / fast_pskip=0 / chroma_qp_offset=-2 / threads=18 / lookahead_threads=3 / sliced_threads=0 / nr=0 / decimate=1 / interlaced=0 / bluray_compat=0 / constrained_intra=0 / bframes=8 / b_pyramid=2 / b_adapt=2 / b_bias=0 / direct=3 / weightb=1 / open_gop=0 / weightp=2 / keyint=250 / keyint_min=23 / scenecut=40 / intra_refresh=0 / rc_lookahead=40 / rc=crf / mbtree=0 / crf=18.0 / qcomp=0.60 / qpmin=0 / qpmax=69 / qpstep=4 / vbv_maxrate=50000 / vbv_bufsize=45000 / crf_max=0.0 / nal_hrd=none / filler=0 / ip_ratio=1.40 / pb_ratio=1.30 / aq=3:1.00
Language : English
Default : Yes
Forced : No
Color range : Limited
Matrix coefficients : BT.709

Audio #1
ID : 2
Format : AC-3
Format/Info : Audio Coding 3
Commercial name : Dolby Digital
Codec ID : A_AC3
Duration : 1 h 33 min
Bit rate mode : Constant
Bit rate : 192 kb/s
Channel(s) : 2 channels
Channel layout : L R
Sampling rate : 48.0 kHz
Frame rate : 31.250 FPS (1536 SPF)
Bit depth : 16 bits
Compression mode : Lossy
Stream size : 128 MiB (2%)
Title : UKR (НТН)
Language : Ukrainian
Service kind : Complete Main
Default : Yes
Forced : Yes

Audio #2
ID : 3
Format :
Format/Info : Digital Theater Systems
Codec ID : A_DTS
Duration : 1 h 33 min
Bit rate mode : Constant
Bit rate : 1 509 kb/s
Channel(s) : 6 channels
Channel layout : C L R Ls Rs LFE
Sampling rate : 48.0 kHz
Frame rate : 93.750 FPS (512 SPF)
Bit depth : 24 bits
Compression mode : Lossy
Stream size : 1 007 MiB (14%)
Title : Original
Language : English
Default : No
Forced : No

Text #1
ID : 4
Format : UTF-8
Codec ID : S_TEXT/UTF8
Codec ID/Info : UTF-8 Plain Text
Title : ENG Full
Language : English
Default : No
Forced : No

Text #2
ID : 5
Format : UTF-8
Codec ID : S_TEXT/UTF8
Codec ID/Info : UTF-8 Plain Text
Title : ENG SDH
Language : English
Default : No
Forced : No

Menu
00:00:00.000 : en:00:00:00.000
00:05:34.459 : en:00:05:34.459
00:17:02.813 : en:00:17:02.813
00:22:26.262 : en:00:22:26.262
00:35:04.227 : en:00:35:04.227
00:43:02.079 : en:00:43:02.079
00:52:17.176 : en:00:52:17.176
01:02:38.922 : en:01:02:38.922
01:19:36.188 : en:01:19:36.188
01:27:35.375 : en:01:27:35.375
Скріншоти






За запис звуку з ТБ дякуємо пану Bohdan237, Krigg070
Особиста подяка пану denixx за надану матеріальну допомогу на підтримку цього і майбутніх релізів.

Джерело:


 Трекер:    Зареєстрований   

Завантажити / скачати фільм українською



відео для новачків



 Зареєстрований:   2020-05-17 12:51
 Розмір:   6.82 GB 
 Оцінка фільму:   9/10 (Голосів: 3)
   
Інші релізи
   Ґалвестон / Galveston (2018) AVC 2xUkr/Eng | Sub Eng Arsenfpu  11 / 0   1.71 GB   2020-05-17 15:17 
   Ґальвестон / Galveston (2018) 1080p H.265 Ukr/Eng | Sub Eng -Star-Lord-  4 / 0   3.45 GB   2019-01-18 18:00 
   Ґальвестон / Galveston (2018) DniproFilm  5 / 0   1.17 GB   2018-12-25 03:28 
   Ґальвестон / Galveston (2018) 720p Ukr/Eng DniproFilm  3 / 0   3.21 GB   2018-12-25 03:28 
   Ґальвестон / Galveston (2018) 1080p Ukr/Eng DniproFilm  4 / 0   5.13 GB   2018-12-25 03:28 
Ваш часовий пояс: GMT + 2 Години

Нова тема   Відповісти