Паранорман / ParaNorman (2012) AVC 2xUkr/Eng | sub Ukr/Eng

Нові коментарі

Нова тема   Відповісти
Автор Повідомлення
staf777 
Відео Гуртом - підтримка та поширення
Відео Гуртом - підтримка та поширення


З нами з: 16.11.16
Востаннє: 29.10.20
Повідомлень: 4243

2020-05-17 00:18  
Паранорман / ParaNorman (2012) AVC 2xUkr/Eng | sub Ukr/Eng

Паранорман / ParaNorman (2012) AVC 2xUkr/Eng | sub Ukr/Eng


Жанр: комедія, анімація, фентезі, пригодницький, жахи
Країна: США



Кінокомпанія: Laika Entertainment
Режисер: Кріс Батлер, Сем Фелл
Ролі озвучують: Коді Сміт-МакФі, Анна Кендрік, Леслі Ман, Джон Гудмен, Крістофер Мінц-Плассе, Кейсі Афлек, Джодель Ферланд, Бернард Хілл, Джеремі Шеда, Джефф Гарлін

Сюжет:
Норман, Паранорман. Єдина надія напівсонного містечка в боротьбі з полчищами нечисті. Його зброя - супер-мега-дар: вміння спілкуватися з примарами. Втім, мерці - не головна небезпека, куди гірше - дурні дорослі з дробовиками.


Тривалість: 01:32:15
Якість: AVC
Відео:
кодек:
розмір кадру: 1024x432
бітрейт: 1873 кб/с

Аудіо # 1:
мова: українська
переклад: професійний дубльований
кодек: 5.1
бітрейт: 448 кб/с

Аудіо # 2:
мова: українська
переклад: багатоголосий закадровий
кодек: 2.0
бітрейт: 192 кб/с

Аудіо # 3:
мова: англійська
переклад: оригінал
кодек: 5.1
бітрейт: 448 кб/с

Субтитри # 1:
мова: українська
тип: програмні (м'які)
формат: *.srt

Субтитри # 2:
мова: англійська
тип: програмні (м'які)
формат: *.srt
MI
General
Unique ID : 246835515200004557800985956533993509746 (0xB9B2CA7F61C5F18DE469A7B76B489372)
Complete name : Z:\Мультфільми AVC\ParaNorman (2012) AVC [2xUKR][ENG][Hurtom].
Format :
Format version : Version 4
File size : 1.91 GiB
Duration : 1 h 32 min
Overall bit rate : 2 963 kb/s
Movie name : Паранорман / ParaNorman (2012) AVC [2xUKR][ENG][Hurtom]
Encoded date : UTC 2020-06-07 18:15:16
Writing application : v46.0.0 ('No Deeper Escape') 64-bit
Writing library : libebml v1.3.10 + v1.5.2
Cover : Yes
Attachments : cover.jpg

Video
ID : 1
Format : AVC
Format/Info : Advanced Video Codec
Format profile : [email protected]
Format settings : CABAC / 12 Ref Frames
Format settings, CABAC : Yes
Format settings, Reference : 12 frames
Codec ID : V_MPEG4/ISO/AVC
Duration : 1 h 32 min
Bit rate : 1 873 kb/s
Width : 1 024 pixels
Height : 432 pixels
Display aspect ratio : 2.40:1
Frame rate mode : Constant
Frame rate : 23.976 (24000/1001) FPS
Color space : YUV
Chroma subsampling : 4:2:0
Bit depth : 8 bits
Scan type : Progressive
Bits/(Pixel*Frame) : 0.177
Stream size : 1.21 GiB (63%)
Title : Paranorman.2012..H264.1400MB.NNM-CLUB.GIU
Writing library : core 116 r2074 2641b9e
Encoding settings : cabac=1 / ref=12 / deblock=1:-3:-3 / analyse=0x3:0x113 / me=umh / subme=11 / psy=1 / psy_rd=1.00:0.00 / mixed_ref=1 / me_range=48 / chroma_me=1 / trellis=2 / 8x8dct=1 / cqm=0 / deadzone=21,11 / fast_pskip=1 / chroma_qp_offset=-2 / threads=12 / sliced_threads=0 / nr=0 / decimate=1 / interlaced=0 / bluray_compat=0 / constrained_intra=0 / bframes=7 / b_pyramid=2 / b_adapt=2 / b_bias=0 / direct=3 / weightb=1 / open_gop=0 / weightp=2 / keyint=250 / keyint_min=23 / scenecut=40 / intra_refresh=0 / rc_lookahead=40 / rc=2pass / mbtree=1 / bitrate=1873 / ratetol=1.0 / qcomp=0.70 / qpmin=10 / qpmax=51 / qpstep=4 / cplxblur=20.0 / qblur=0.5 / ip_ratio=1.40 / aq=1:0.70
Default : No
Forced : No

Audio #1
ID : 2
Format : AC-3
Format/Info : Audio Coding 3
Commercial name : Dolby Digital
Codec ID : A_AC3
Duration : 1 h 32 min
Bit rate mode : Constant
Bit rate : 448 kb/s
Channel(s) : 6 channels
Channel layout : L R C LFE Ls Rs
Sampling rate : 48.0 kHz
Frame rate : 31.250 FPS (1536 SPF)
Compression mode : Lossy
Stream size : 295 MiB (15%)
Title : Dub LeDoyen Studio [Hurtom-Skiff]
Language : Ukrainian
Service kind : Complete Main
Default : Yes
Forced : Yes

Audio #2
ID : 3
Format : AC-3
Format/Info : Audio Coding 3
Commercial name : Dolby Digital
Codec ID : A_AC3
Duration : 1 h 32 min
Bit rate mode : Constant
Bit rate : 192 kb/s
Channel(s) : 2 channels
Channel layout : L R
Sampling rate : 48.0 kHz
Frame rate : 31.250 FPS (1536 SPF)
Compression mode : Lossy
Stream size : 127 MiB (6%)
Title : Mvo NLO
Language : Ukrainian
Service kind : Complete Main
Default : No
Forced : No

Audio #3
ID : 4
Format : AC-3
Format/Info : Audio Coding 3
Commercial name : Dolby Digital
Codec ID : A_AC3
Duration : 1 h 32 min
Bit rate mode : Constant
Bit rate : 448 kb/s
Channel(s) : 6 channels
Channel layout : L R C LFE Ls Rs
Sampling rate : 48.0 kHz
Frame rate : 31.250 FPS (1536 SPF)
Compression mode : Lossy
Stream size : 295 MiB (15%)
Title : Original
Language : English
Service kind : Complete Main
Default : No
Forced : No

Text #1
ID : 5
Format : UTF-8
Codec ID : S_TEXT/UTF8
Codec ID/Info : UTF-8 Plain Text
Duration : 1 h 25 min
Bit rate : 83 b/s
Count of elements : 915
Stream size : 52.3 KiB (0%)
Language : Ukrainian
Default : No
Forced : No

Text #2
ID : 6
Format : UTF-8
Codec ID : S_TEXT/UTF8
Codec ID/Info : UTF-8 Plain Text
Duration : 1 h 24 min
Bit rate : 59 b/s
Count of elements : 1335
Stream size : 36.8 KiB (0%)
Title : English (SDH)
Language : English
Default : No
Forced : No

Menu
00:00:00.000 : en:00:00:00.000
00:04:55.420 : en:00:04:55.420
00:08:29.426 : en:00:08:29.426
00:11:38.865 : en:00:11:38.865
00:15:10.576 : en:00:15:10.576
00:18:10.673 : en:00:18:10.673
00:21:54.146 : en:00:21:54.146
00:26:25.501 : en:00:26:25.501
00:30:04.970 : en:00:30:04.970
00:33:56.117 : en:00:33:56.117
00:38:16.920 : en:00:38:16.920
00:43:06.542 : en:00:43:06.542
00:49:36.849 : en:00:49:36.849
00:52:46.789 : en:00:52:46.789
00:56:46.194 : en:00:56:46.194
01:01:15.964 : en:01:01:15.964
01:05:53.575 : en:01:05:53.575
01:11:51.057 : en:01:11:51.057
01:18:19.486 : en:01:18:19.486
01:25:07.394 : en:01:25:07.394



Доріжка - Skiff, доріжка - kicyunya, українські субтитри - переклад AlanAlan
Джерело: &
ЗАЛИШАЙТЕСЬ ЯКОМОГА ДОВШЕ НА РОЗДАЧІ!

СКАЧАВ САМ - ДАЙ СКАЧАТИ ІНШИМ



 Трекер:    Зареєстрований   

Завантажити / скачати мультфільм українською



відео для новачків



 Зареєстрований:   2020-06-07 20:37
 Розмір:   1.91 GB 
 Оцінка мультфільму:   8.3/10 (Голосів: 6)
   
Інші релізи
bot 
робот


З нами з: 30.09.07
Востаннє: 26.05.05
Повідомлень: 26001

2020-05-17 00:18  
Тему перенесено з Мультфільми до форуму Анонси релізів


staf777

bot 
робот


З нами з: 30.09.07
Востаннє: 26.05.05
Повідомлень: 26001

2020-06-07 20:37  
Тему перенесено з Анонси релізів до форуму Фільми


staf777

bot 
робот


З нами з: 30.09.07
Востаннє: 26.05.05
Повідомлень: 26001

2020-06-07 20:39  
Тему перенесено з Фільми до форуму Мультфільми


staf777

Ваш часовий пояс: GMT + 2 Години

Нова тема   Відповісти