Монстри проти чужих / Monsters vs Aliens (2009) AVC Ukr/Eng | sub Ukr/Eng

Нові коментарі

Нова тема   Відповісти
Автор Повідомлення
staf777 
Відео Гуртом - підтримка та поширення
Відео Гуртом - підтримка та поширення


З нами з: 16.11.16
Востаннє: 31.10.20
Повідомлень: 4255

2020-05-16 23:38  
Монстри проти чужих / Monsters vs Aliens (2009) AVC Ukr/Eng | sub Ukr/Eng

Монстри проти чужих / Monsters vs Aliens (2009) AVC Ukr/Eng | sub Ukr/Eng


Жанр: анімація, фантастика
Країна: США



Кінокомпанія: DreamWorks Animation
Режисер: Роб Леттерман, Конрад Вернон
Ролі озвучують: Різ Уізерспун, Уілл Арнетт, Сет Роген, Хью Лорі, Рейн Уілсон, Кіфер Сазерленд, Пол Радд, Стівен Кольбер

Сюжет:
Іноді на весіллях трапляються невеличкі неприємності. Для Сюзан такою неприємністю виявилося потрапити під багатотонний метеорит. Речовина всередині брили наділила її надсилою і гігантським ростом. Військові структури її відловили, приспали і відправили на секретну базу, на якій вже коротали час четверо монстрів.

Як виявилося, за речовиною, що потрапили в Сюзан і званим квантоніем, полює Чотириокий інопланетянин Галактазар, який надіслав величезного робота для його вилучення. Щоб побороти сталеве чудовисько, вирішено було випустити проти нього монстрів. Робот переможений, і Галактазару доводиться особисто прибути за квантоніем на Землю.

Галактазар забирає на свій корабель Сюзан, вилучає з неї квантоній, внаслідок чого вона повертається до своїх колишніх розмірів. Далі інопланетянин хоче заселити Землю своїми клонами. Цим часом монстри висаджуються на корабель, звільняють Сюзан і зламують головний комп'ютер, що запускає механізм самознищення НЛО. У фінальній битві між Галактазаром і Сюзан остання знову знаходить силу і зростання, поглинувши квантоній, і рятує себе і монстрів. Корабель знищений, Земля врятована, а п'ятірку чекає нове завдання там, де Сюзан мріяла побувати - в Парижі.


Тривалість: 01:34:21
Якість: AVC
Відео:
кодек:
розмір кадру: 1024x432
бітрейт: 1968 кб/с

Аудіо # 1:
мова: українська
переклад: професійний дубльований
кодек: 5.1
бітрейт: 448 кб/с

Аудіо # 2:
мова: англійська
переклад: оригінал
кодек: 5.1
бітрейт: 448 кб/с

Субтитри # 1:
мова: українська
тип: програмні (м'які)
формат: *.srt

Субтитри # 2:
мова: англійська
тип: програмні (м'які)
формат: *.srt
MI
General
Unique ID : 49368354997855016300102347362612312965 (0x2523FFD367F509A33D2BBC7D22647B85)
Complete name : Z:\Мультфільми AVC\Monsters vs Aliens (2009) AVC [UKR_ENG] [Hurtom].
Format :
Format version : Version 4
File size : 1.89 GiB
Duration : 1 h 34 min
Overall bit rate : 2 862 kb/s
Movie name : Монстри проти чужих / Monsters vs Aliens (2009) AVC [UKR_ENG] [Hurtom]
Encoded date : UTC 2020-05-16 21:24:32
Writing application : v46.0.0 ('No Deeper Escape') 64-bit
Writing library : libebml v1.3.10 + v1.5.2
Cover : Yes
Attachments : cover.jpg

Video
ID : 1
Format : AVC
Format/Info : Advanced Video Codec
Format profile : [email protected]
Format settings : CABAC / 10 Ref Frames
Format settings, CABAC : Yes
Format settings, Reference : 10 frames
Codec ID : V_MPEG4/ISO/AVC
Duration : 1 h 34 min
Bit rate : 1 968 kb/s
Width : 1 024 pixels
Height : 432 pixels
Display aspect ratio : 2.35:1
Frame rate mode : Constant
Frame rate : 23.976 FPS
Color space : YUV
Chroma subsampling : 4:2:0
Bit depth : 8 bits
Scan type : Progressive
Bits/(Pixel*Frame) : 0.186
Stream size : 1.30 GiB (69%)
Writing library : core 98 r1649 20cbe10
Encoding settings : cabac=1 / ref=10 / deblock=1:-3:-3 / analyse=0x3:0x133 / me=umh / subme=10 / psy=1 / psy_rd=1.00:0.10 / mixed_ref=1 / me_range=48 / chroma_me=1 / trellis=2 / 8x8dct=1 / cqm=0 / deadzone=21,11 / fast_pskip=0 / chroma_qp_offset=-3 / threads=12 / sliced_threads=0 / nr=0 / decimate=1 / interlaced=0 / constrained_intra=0 / bframes=5 / b_pyramid=2 / b_adapt=2 / b_bias=0 / direct=3 / weightb=1 / weightp=2 / keyint=250 / keyint_min=23 / scenecut=40 / intra_refresh=0 / rc_lookahead=40 / rc=2pass / mbtree=1 / bitrate=1968 / ratetol=1.0 / qcomp=0.60 / qpmin=10 / qpmax=51 / qpstep=4 / cplxblur=20.0 / qblur=0.5 / ip_ratio=1.40 / aq=1:1.00
Language : English
Default : No
Forced : No

Audio #1
ID : 2
Format : AC-3
Format/Info : Audio Coding 3
Commercial name : Dolby Digital
Codec ID : A_AC3
Duration : 1 h 34 min
Bit rate mode : Constant
Bit rate : 448 kb/s
Channel(s) : 6 channels
Channel layout : L R C LFE Ls Rs
Sampling rate : 48.0 kHz
Frame rate : 31.250 FPS (1536 SPF)
Compression mode : Lossy
Stream size : 302 MiB (16%)
Title : 5.1 @ 448 kbps [UKR-DUB]
Language : Ukrainian
Service kind : Complete Main
Default : Yes
Forced : Yes

Audio #2
ID : 3
Format : AC-3
Format/Info : Audio Coding 3
Commercial name : Dolby Digital
Codec ID : A_AC3
Duration : 1 h 34 min
Bit rate mode : Constant
Bit rate : 448 kb/s
Channel(s) : 6 channels
Channel layout : L R C LFE Ls Rs
Sampling rate : 48.0 kHz
Frame rate : 31.250 FPS (1536 SPF)
Compression mode : Lossy
Stream size : 302 MiB (16%)
Title : 5.1 @ 448 kbps Original
Language : English
Service kind : Complete Main
Default : No
Forced : No

Text #1
ID : 4
Format : UTF-8
Codec ID : S_TEXT/UTF8
Codec ID/Info : UTF-8 Plain Text
Duration : 1 h 26 min
Bit rate : 90 b/s
Count of elements : 958
Stream size : 57.2 KiB (0%)
Language : Ukrainian
Default : No
Forced : No

Text #2
ID : 5
Format : UTF-8
Codec ID : S_TEXT/UTF8
Codec ID/Info : UTF-8 Plain Text
Duration : 1 h 26 min
Bit rate : 55 b/s
Count of elements : 944
Stream size : 35.0 KiB (0%)
Language : English
Default : No
Forced : No

Menu
00:00:00.000 : :Chapter 01
00:05:08.933 : :Chapter 02
00:07:39.500 : :Chapter 03
00:11:01.994 : :Chapter 04
00:17:36.096 : :Chapter 05
00:20:36.902 : :Chapter 06
00:24:10.407 : :Chapter 07
00:28:20.740 : :Chapter 08
00:32:41.960 : :Chapter 09
00:35:10.483 : :Chapter 10
00:38:59.420 : :Chapter 11
00:41:51.383 : :Chapter 12
00:46:47.095 : :Chapter 13
00:50:10.257 : :Chapter 14
00:55:48.053 : :Chapter 15
00:59:38.157 : :Chapter 16
01:03:24.133 : :Chapter 17
01:06:38.244 : :Chapter 18
01:08:38.280 : :Chapter 19
01:14:00.352 : :Chapter 20
01:16:55.569 : :Chapter 21
01:18:10.227 : :Chapter 22
01:21:38.393 : :Chapter 23
01:25:10.104 : :Chapter 24
01:34:21.656 : :Chapter 25



Джерело: &
ЗАЛИШАЙТЕСЬ ЯКОМОГА ДОВШЕ НА РОЗДАЧІ!

СКАЧАВ САМ - ДАЙ СКАЧАТИ ІНШИМ



 Трекер:    Зареєстрований   

Завантажити / скачати мультфільм українською



відео для новачків



 Зареєстрований:   2020-05-16 23:38
 Розмір:   1.89 GB 
 Оцінка мультфільму:   8.5/10 (Голосів: 13)
   
xslim 
Відео Гуртом - фільмокрай
Відео Гуртом - фільмокрай


З нами з: 04.03.09
Востаннє: 31.10.20
Повідомлень: 1371

2020-05-17 11:26  
Існує ще озвучка від ICTV запис старий і спектр звуку ледве 12 кГц
Записаний ще 09.01.2012
https://mega.nz/file/XZ0jXAYa#1vRECfbn0zmFjkcNHAD3-Xxvyk22Hyb1EwnVnU_Tvps

Ergo Proxy 
Поважний учасник


З нами з: 22.05.12
Востаннє: 30.10.20
Повідомлень: 172

2020-05-17 15:56  
а навіщо весь сюжет переповідати в описі?
Nickolassssssss 
VIP


З нами з: 31.05.14
Востаннє: 31.10.20
Повідомлень: 364

2020-05-24 15:36  
Нормальний мульт на раз. Подивився лише тому, що давно не доходили руки.

Згоден з коментатором вище - опис треба виправити, бо там описаний весь сюжет.

Ваш часовий пояс: GMT + 2 Години

Нова тема   Відповісти