Два дні в долині / 2 Days in the Valley (1996) AVC Ukr/Eng |Sub Eng

Нові коментарі

Нова тема   Відповісти
Автор Повідомлення
Arsenfpu 
Відео Гуртом - фільмокрай
Відео Гуртом - фільмокрай


З нами з: 30.04.09
Востаннє: 04.07.20
Повідомлень: 7031

2020-05-17 00:04  
Два дні в долині / 2 Days in the Valley (1996) AVC Ukr/Eng |Sub Eng

Два дні в долині / 2 Days in the Valley (1996) AVC Ukr/Eng |Sub Eng


Жанр: кримінальна комедія
Країна: США



Кінокомпанія: Rysher Entertainment, Redemption Productions
Режисер: Джон Херцфельд
Актори: Денні Айелло, Джеймс Спейдер, Ерік Штольц, Джефф Деніелз, Гленн Хедлі, Тері Хетчер, Пітер Хортон, Марша Мейсон, Грегг Краттуелл, Пол Мазурскі, Шарліз Терон

Сюжет:
Відома спортсменка Бекі Фокс наймає двох кілерів: Лі і Дозмо, щоб убити свого колишнього чоловіка і отримати страховку. Ця частина плану проходить успішно, а от далі все йде шкереберть. Вбитий залишається живим, спільниця стає жертвою, самогубець - вбивцею, а два детектива Елвін і Вес, що працюють за тривіальною справою з масажним салоном, виявляються надто близько від куль..


Тривалість: 01:44:50
Якість:
Відео:
кодек:
розмір кадру: 1 026 х 436
бітрейт: 2 018 кб/с

Аудіо # 1:
мова: українська
переклад: багатоголосий закадровий
кодек: 2.0
бітрейт: 192 кб/с

Аудіо # 2:
мова: англійська
переклад: оригінал
кодек: 2.0
бітрейт: 192 кб/с

Субтитри:
мова: англійська
тип: програмні (м'які)
формат: *.srt
Скріншоти














Про файл
General
Unique ID : 110602868537450651921567841658524512960 (0x5335566FE9726C2240B5E999DAA9B2C0)
Complete name : C:\2 Days in the Valley (1996) [Ukr,Eng] AVC [Hurtom].
Format :
Format version : Version 4 / Version 2
File size : 1.76 GiB
Duration : 1 h 44 min
Overall bit rate : 2 403 kb/s
Movie name : Два дні в долині / 2 Days in the Valley (1996)
Encoded date : UTC 2020-05-16 20:16:03
Writing application : v21.0.0 ('Tardigrades Will Inherit The Earth') 32-bit
Writing library : libebml v1.3.5 + v1.4.8
Cover : Yes
Attachments : cover.jpg

Video
ID : 1
Format : AVC
Format/Info : Advanced Video Codec
Format profile : [email protected]
Format settings, CABAC : Yes
Format settings, ReFrames : 11 frames
Codec ID : V_MPEG4/ISO/AVC
Duration : 1 h 44 min
Bit rate : 2 018 kb/s
Width : 1 026 pixels
Height : 436 pixels
Display aspect ratio : 2.35:1
Frame rate mode : Constant
Frame rate : 23.976 (24000/1001) FPS
Color space : YUV
Chroma subsampling : 4:2:0
Bit depth : 8 bits
Scan type : Progressive
Bits/(Pixel*Frame) : 0.188
Stream size : 1.48 GiB (84%)
Writing library : core 150 r2833M df79067
Encoding settings : cabac=1 / ref=11 / deblock=1:-3:-3 / analyse=0x3:0x133 / me=umh / subme=11 / psy=1 / psy_rd=1.00:0.05 / mixed_ref=1 / me_range=56 / chroma_me=1 / trellis=2 / 8x8dct=1 / cqm=0 / deadzone=21,11 / fast_pskip=0 / chroma_qp_offset=-3 / threads=6 / lookahead_threads=1 / sliced_threads=0 / nr=0 / decimate=1 / interlaced=0 / bluray_compat=0 / constrained_intra=0 / bframes=12 / b_pyramid=2 / b_adapt=2 / b_bias=0 / direct=3 / weightb=1 / open_gop=0 / weightp=2 / keyint=230 / keyint_min=23 / scenecut=40 / intra_refresh=0 / rc=2pass / mbtree=0 / bitrate=2018 / ratetol=1.0 / qcomp=0.65 / qpmin=0 / qpmax=69 / qpstep=4 / cplxblur=20.0 / qblur=0.5 / ip_ratio=1.40 / pb_ratio=1.30 / aq=1:1.00
Language : English
Default : Yes
Forced : No
Color range : Limited
Color primaries : BT.709
Transfer characteristics : BT.709
Matrix coefficients : BT.709

Audio #1
ID : 2
Format : AC-3
Format/Info : Audio Coding 3
Mode extension : CM (complete main)
Format settings, Endianness : Big
Codec ID : A_AC3
Duration : 1 h 44 min
Bit rate mode : Constant
Bit rate : 192 kb/s
Channel(s) : 2 channels
Channel positions : Front: L R
Sampling rate : 48.0 kHz
Frame rate : 31.250 FPS (1536 spf)
Compression mode : Lossy
Stream size : 144 MiB (8%)
Title : Інтер
Language : Ukrainian
Default : Yes
Forced : Yes

Audio #2
ID : 3
Format : AC-3
Format/Info : Audio Coding 3
Mode extension : CM (complete main)
Format settings, Endianness : Big
Codec ID : A_AC3
Duration : 1 h 44 min
Bit rate mode : Constant
Bit rate : 192 kb/s
Channel(s) : 2 channels
Channel positions : Front: L R
Sampling rate : 48.0 kHz
Frame rate : 31.250 FPS (1536 spf)
Compression mode : Lossy
Stream size : 144 MiB (8%)
Language : English
Default : No
Forced : No

Text
ID : 4
Format : UTF-8
Codec ID : S_TEXT/UTF8
Codec ID/Info : UTF-8 Plain Text
Duration : 1 h 43 min
Bit rate : 61 b/s
Count of elements : 1864
Stream size : 46.6 KiB (0%)
Title : ENG
Language : English
Default : Yes
Forced : No
Джерело:
За українську доріжку дякую п. imonko, MAKAPOHHIK
За постер дякую пану somnambula
Особиста оцінка: не дивився


Срібний реліз (на рейтинг впливає 50% завантаженого)
 Трекер:    Зареєстрований   

Завантажити / скачати фільм українською



відео для новачків



 Зареєстрований:   2020-05-17 00:04
 Розмір:   1.76 GB 
 Оцінка фільму:   6/10 (Голосів: 3)
   
don pedro 
Попереджень: 1
Попереджень: 1 


З нами з: 29.06.11
Востаннє: 03.07.20
Повідомлень: 17123

2020-05-17 00:39  
Гарний трилер + прекрасна Шарліз Терон у свої найкращі роки.
Ваш часовий пояс: GMT + 2 Години

Нова тема   Відповісти