Ральф - руйнівник / Wreck-It Ralph (2012) AVC Ukr/Eng | Sub Ukr/Eng

Нові коментарі

Нова тема   Відповісти
Автор Повідомлення
staf777 
Відео Гуртом - підтримка та поширення
Відео Гуртом - підтримка та поширення


З нами з: 16.11.16
Востаннє: 23.10.20
Повідомлень: 4213

2020-05-16 23:54  
Ральф - руйнівник / Wreck-It Ralph (2012) AVC Ukr/Eng | Sub Ukr/Eng

Ральф - руйнівник / Wreck-It Ralph (2012) AVC Ukr/Eng | Sub Ukr/Eng


Жанр: анімація, пригодницький, комедія, сімейний
Країна: США



Кінокомпанія: Walt Disney Animation Studios
Режисер: Річ Мур / Rich Moore
Ролі озвучують: Джон Сі Райлі / John C. Reilly, Сара Сілвермен / Sarah Silverman, Джек МакБраєр / Jack McBrayer, Джейн Лінч / Jane Lynch, Алан Т'юдік / Alan Tudyk, Мінді Калінґ / Mindy Kaling, Жо Ло Труґліо / Joe Lo Truglio, Ед О'Ніл / Ed O'Neill, Денніс Гейсберт / Dennis Haysbert, Еді МакКлурґ / Edie McClurg, Раймонд С. Персі / Raymond S. Persi, Джесс Гарнелл / Jess Harnell, Рейчел Гарріс / Rachael Harris, Скайлар Астін / Skylar Astin, Адам Каролла / Adam Carolla

Сюжет:
Ральф змушений щодня бути поганим хлопцем, все псувати й усім погрожувати, хоч він і не вважає це своїм призначенням, адже щоночі мріє стати хорошим. Але від нього самого мало що залежить, бо Ральф – персонаж комп’ютерної гри. На пошуки кращого себе він мандрує 8-бітним світом, який, як відомо, дуже непередбачуваний.


Тривалість: 01:41:13
Якість: AVC
Відео:
кодек:
розмір кадру: 1024x428
бітрейт: 2186 кб/с

Аудіо # 1:
мова: українська
переклад: професійний дубльований
кодек: 5.1
бітрейт: 448 кб/с

Аудіо # 2:
мова: англійська
переклад: оригінал
кодек: 5.1
бітрейт: 448 кб/с

Субтитри # 1-2: (форсовані, повні)
мова: українська
тип: програмні (м'які)
формат: *.srt

Субтитри # 3-4: (повні, SDH)
мова: англійська
тип: програмні (м'які)
формат: *.srt
MI
General
Unique ID : 156844074612368524046203229119072771763 (0x75FF11EAD613C5BB5F1588BAEDD11EB3)
Complete name : Z:\Мультфільми AVC\Wreck-It Ralph (2012) AVC [UKR_ENG] [Hurtom].
Format :
Format version : Version 4
File size : 2.18 GiB
Duration : 1 h 41 min
Overall bit rate : 3 085 kb/s
Movie name : Ральф - руйнівник / Wreck-It Ralph (2012) AVC [UKR_ENG] [Hurtom]
Encoded date : UTC 2020-05-16 20:44:17
Writing application : v46.0.0 ('No Deeper Escape') 64-bit
Writing library : libebml v1.3.10 + v1.5.2
Cover : Yes
Attachments : cover.jpg

Video
ID : 1
Format : AVC
Format/Info : Advanced Video Codec
Format profile : [email protected]
Format settings : CABAC / 8 Ref Frames
Format settings, CABAC : Yes
Format settings, Reference : 8 frames
Codec ID : V_MPEG4/ISO/AVC
Duration : 1 h 41 min
Bit rate : 2 186 kb/s
Width : 1 024 pixels
Height : 428 pixels
Display aspect ratio : 2.40:1
Frame rate mode : Constant
Frame rate : 23.976 (24000/1001) FPS
Color space : YUV
Chroma subsampling : 4:2:0
Bit depth : 8 bits
Scan type : Progressive
Bits/(Pixel*Frame) : 0.208
Stream size : 1.55 GiB (71%)
Writing library : core 129 r2245 bc13772
Encoding settings : cabac=1 / ref=8 / deblock=1:-3:-3 / analyse=0x3:0x133 / me=umh / subme=11 / psy=1 / psy_rd=1.00:0.10 / mixed_ref=1 / me_range=32 / chroma_me=1 / trellis=2 / 8x8dct=1 / cqm=0 / deadzone=21,11 / fast_pskip=0 / chroma_qp_offset=-3 / threads=12 / lookahead_threads=2 / sliced_threads=0 / nr=0 / decimate=0 / interlaced=0 / bluray_compat=0 / constrained_intra=0 / bframes=6 / b_pyramid=2 / b_adapt=2 / b_bias=0 / direct=3 / weightb=1 / open_gop=0 / weightp=2 / keyint=240 / keyint_min=22 / scenecut=40 / intra_refresh=0 / rc_lookahead=40 / rc=2pass / mbtree=1 / bitrate=2186 / ratetol=1.0 / qcomp=0.60 / qpmin=0 / qpmax=69 / qpstep=4 / cplxblur=20.0 / qblur=0.5 / ip_ratio=1.40 / aq=1:1.00
Default : Yes
Forced : No

Audio #1
ID : 2
Format : AC-3
Format/Info : Audio Coding 3
Commercial name : Dolby Digital
Codec ID : A_AC3
Duration : 1 h 41 min
Bit rate mode : Constant
Bit rate : 448 kb/s
Channel(s) : 6 channels
Channel layout : L R C LFE Ls Rs
Sampling rate : 48.0 kHz
Frame rate : 31.250 FPS (1536 SPF)
Compression mode : Lossy
Stream size : 324 MiB (15%)
Title : 5.1 @ 448 kbps [UKR-DUB]
Language : Ukrainian
Service kind : Complete Main
Default : Yes
Forced : Yes

Audio #2
ID : 3
Format : AC-3
Format/Info : Audio Coding 3
Commercial name : Dolby Digital
Codec ID : A_AC3
Duration : 1 h 41 min
Bit rate mode : Constant
Bit rate : 448 kb/s
Channel(s) : 6 channels
Channel layout : L R C LFE Ls Rs
Sampling rate : 48.0 kHz
Frame rate : 31.250 FPS (1536 SPF)
Compression mode : Lossy
Stream size : 324 MiB (15%)
Title : 5.1 @ 448 kbps Original
Language : English
Service kind : Complete Main
Default : No
Forced : No

Text #1
ID : 4
Format : UTF-8
Codec ID : S_TEXT/UTF8
Codec ID/Info : UTF-8 Plain Text
Duration : 1 h 34 min
Bit rate : 1 b/s
Count of elements : 37
Stream size : 1.02 KiB (0%)
Title : Forced
Language : Ukrainian
Default : Yes
Forced : Yes

Text #2
ID : 5
Format : UTF-8
Codec ID : S_TEXT/UTF8
Codec ID/Info : UTF-8 Plain Text
Duration : 1 h 32 min
Bit rate : 96 b/s
Count of elements : 1308
Stream size : 65.2 KiB (0%)
Title : Full
Language : Ukrainian
Default : No
Forced : No

Text #3
ID : 6
Format : UTF-8
Codec ID : S_TEXT/UTF8
Codec ID/Info : UTF-8 Plain Text
Duration : 1 h 32 min
Bit rate : 65 b/s
Count of elements : 1492
Stream size : 44.1 KiB (0%)
Title : Full
Language : English
Default : No
Forced : No

Text #4
ID : 7
Format : UTF-8
Codec ID : S_TEXT/UTF8
Codec ID/Info : UTF-8 Plain Text
Duration : 1 h 40 min
Bit rate : 71 b/s
Count of elements : 1868
Stream size : 52.5 KiB (0%)
Title : SDH
Language : English
Default : No
Forced : No

Menu
00:00:00.000 : en:00:00:00.000
00:07:12.140 : en:00:07:12.140
00:16:34.910 : en:00:16:34.910
00:27:07.501 : en:00:27:07.501
00:37:25.952 : en:00:37:25.952
00:44:46.684 : en:00:44:46.684
00:48:45.130 : en:00:48:45.130
00:51:36.009 : en:00:51:36.009
00:58:56.032 : en:00:58:56.032
01:09:07.893 : en:01:09:07.893
01:13:39.623 : en:01:13:39.623
01:15:56.802 : en:01:15:56.802
01:18:52.978 : en:01:18:52.978
01:21:53.742 : en:01:21:53.742
01:27:25.365 : en:01:27:25.365
01:33:10.543 : en:01:33:10.543




Джерело: &
ЗАЛИШАЙТЕСЬ ЯКОМОГА ДОВШЕ НА РОЗДАЧІ!

СКАЧАВ САМ - ДАЙ СКАЧАТИ ІНШИМ



 Трекер:    Зареєстрований   

Завантажити / скачати мультфільм українською



відео для новачків



 Зареєстрований:   2020-05-16 23:54
 Розмір:   2.18 GB 
 Оцінка мультфільму:   9.3/10 (Голосів: 16)
   
Ваш часовий пояс: GMT + 2 Години

Нова тема   Відповісти