Король сафарі / Khumba (2013) AVC Ukr/Eng | Sub Eng

Нові коментарі

Нова тема   Відповісти
Автор Повідомлення
staf777 
Відео Гуртом - підтримка та поширення
Відео Гуртом - підтримка та поширення


З нами з: 16.11.16
Востаннє: 27.10.20
Повідомлень: 4231

2020-05-16 22:16  
Король сафарі / Khumba (2013) AVC Ukr/Eng | Sub Eng

Король сафарі / Khumba (2013) AVC Ukr/Eng | Sub Eng


Жанр: анімація, пригодницький, сімейний
Країна: ПАР



Кінокомпанія: Triggerfish Animation
Режисер: Ентоні Сілверстон / Anthony Silverston
Ролі озвучують: Джейк Т. Остін / Jake T. Austin, Стів Бушемі / Steve Buscemi, Лоретта Дівайн / Loretta Devine, Лоуренс Фішборн / Laurence Fishburne, Річард Е. Ґрант / Richard E. Grant, Аніка Ноні Роуз / Anika Noni Rose, Анна-Cофія Робб / AnnaSophia Robb та інші

Сюжет:
Головний герой, якого звати Кумба, – це зебра. Від самого народження він відрізняється від своїх родичів та привертає до себе увагу. Адже його тіло вкрите чорними смугами лише наполовину. Члени племені ставилися до цього по-різному, допоки в їхніх краях не розпочалася страшна засуха. Багато хто звинуватив юного зебру в тому, що це його відмінність від решти тварин накликала лихо. Хлопчині нічого не лишається, як тільки рушити у далеку подорож. Він має знайти смужки, яких так бракує. Дорогою на нього чекають неймовірні пригоди. Сміливець зустріне багато нових друзів, а також на нього чекатимуть небачені раніше небезпеки. Та найголовніше – це те, що подолавши складний шлях, Кумба обов’язково завоює любов та повагу родичів.
Над проектом працювала команда мультиплікаторів, знайомих глядачеві за анімаційним фільмом 2012 року «Замбезія».


Тривалість: 01:25:18
Якість: AVC
Відео:
кодек:
розмір кадру: 1024x424
бітрейт: 2755 кб/с

Аудіо # 1:
мова: українська
переклад: професійний дубльований
кодек: 2.0
бітрейт: 192 кб/с

Аудіо # 2:
мова: англійська
переклад: оригінал
кодек: 5.1
бітрейт: 448 кб/с

Субтитри # 1: (форсовані, на місця без перекладу)
мова: українська (ivan vyrvyvuho)
тип: програмні (м'які)
формат: *.srt

Субтитри # 2:
мова: англійська
тип: програмні (м'які)
формат: *.srt
MI
General
Unique ID : 38533714244131259834941551959891664796 (0x1CFD52CB33D3D2C485A7E42B6D925F9C)
Complete name : Z:\Мультфільми AVC\Khumba (2013) AVC [UKR_ENG] [Hurtom].
Format :
Format version : Version 4
File size : 2.02 GiB
Duration : 1 h 25 min
Overall bit rate : 3 398 kb/s
Movie name : Король сафарі / Khumba (2013) AVC [UKR_ENG] [Hurtom]
Encoded date : UTC 2020-05-16 19:54:57
Writing application : v46.0.0 ('No Deeper Escape') 64-bit
Writing library : libebml v1.3.10 + v1.5.2
Cover : Yes
Attachments : cover.jpg

Video
ID : 1
Format : AVC
Format/Info : Advanced Video Codec
Format profile : [email protected]
Format settings : CABAC / 8 Ref Frames
Format settings, CABAC : Yes
Format settings, Reference : 8 frames
Codec ID : V_MPEG4/ISO/AVC
Duration : 1 h 25 min
Bit rate : 2 755 kb/s
Width : 1 024 pixels
Height : 424 pixels
Display aspect ratio : 2.40:1
Frame rate mode : Constant
Frame rate : 23.976 (24000/1001) FPS
Color space : YUV
Chroma subsampling : 4:2:0
Bit depth : 8 bits
Scan type : Progressive
Bits/(Pixel*Frame) : 0.265
Stream size : 1.64 GiB (81%)
Writing library : core 130 r2273 b3065e6
Encoding settings : cabac=1 / ref=8 / deblock=1:-3:-2 / analyse=0x3:0x113 / me=umh / subme=10 / psy=1 / psy_rd=1.00:0.05 / mixed_ref=1 / me_range=32 / chroma_me=1 / trellis=2 / 8x8dct=1 / cqm=0 / deadzone=21,11 / fast_pskip=0 / chroma_qp_offset=-3 / threads=9 / lookahead_threads=1 / sliced_threads=0 / nr=0 / decimate=0 / interlaced=0 / bluray_compat=0 / constrained_intra=0 / bframes=8 / b_pyramid=2 / b_adapt=2 / b_bias=0 / direct=3 / weightb=1 / open_gop=0 / weightp=2 / keyint=240 / keyint_min=24 / scenecut=40 / intra_refresh=0 / rc_lookahead=40 / rc=2pass / mbtree=1 / bitrate=2755 / ratetol=1.0 / qcomp=0.60 / qpmin=0 / qpmax=69 / qpstep=4 / cplxblur=20.0 / qblur=0.5 / ip_ratio=1.40 / aq=1:1.00
Language : English
Default : Yes
Forced : No

Audio #1
ID : 2
Format : AC-3
Format/Info : Audio Coding 3
Commercial name : Dolby Digital
Codec ID : A_AC3
Duration : 1 h 25 min
Bit rate mode : Constant
Bit rate : 192 kb/s
Channel(s) : 2 channels
Channel layout : L R
Sampling rate : 48.0 kHz
Frame rate : 31.250 FPS (1536 SPF)
Compression mode : Lossy
Stream size : 117 MiB (6%)
Title : [UKR-DUB-LINE]
Language : Ukrainian
Service kind : Complete Main
Default : Yes
Forced : Yes

Audio #2
ID : 3
Format : AC-3
Format/Info : Audio Coding 3
Commercial name : Dolby Digital
Codec ID : A_AC3
Duration : 1 h 25 min
Bit rate mode : Constant
Bit rate : 448 kb/s
Channel(s) : 6 channels
Channel layout : L R C LFE Ls Rs
Sampling rate : 48.0 kHz
Frame rate : 31.250 FPS (1536 SPF)
Compression mode : Lossy
Stream size : 273 MiB (13%)
Title : 5.1, 448 kbps, 48 kHz
Language : English
Service kind : Complete Main
Default : No
Forced : No

Text #1
ID : 4
Format : UTF-8
Codec ID : S_TEXT/UTF8
Codec ID/Info : UTF-8 Plain Text
Duration : 8 min 43 s
Bit rate : 27 b/s
Count of elements : 38
Stream size : 1.78 KiB (0%)
Title : (форсовані, на місця без перекладу)
Language : Ukrainian
Default : Yes
Forced : Yes

Text #2
ID : 5
Format : UTF-8
Codec ID : S_TEXT/UTF8
Codec ID/Info : UTF-8 Plain Text
Duration : 1 h 17 min
Bit rate : 56 b/s
Count of elements : 1201
Stream size : 32.2 KiB (0%)
Title : English
Language : English
Default : No
Forced : No

Menu
00:00:00.000 : en:00:00:00.000
00:07:02.881 : en:00:07:02.881
00:14:33.623 : en:00:14:33.623
00:24:04.485 : en:00:24:04.485
00:30:51.933 : en:00:30:51.933
00:38:02.489 : en:00:38:02.489
00:45:18.507 : en:00:45:18.507
00:50:56.345 : en:00:50:56.345
00:55:26.865 : en:00:55:26.865
01:00:10.857 : en:01:00:10.857
01:09:02.305 : en:01:09:02.305
01:19:12.790 : en:01:19:12.790



Джерело: &
ЗАЛИШАЙТЕСЬ ЯКОМОГА ДОВШЕ НА РОЗДАЧІ!

СКАЧАВ САМ - ДАЙ СКАЧАТИ ІНШИМ



 Трекер:    Зареєстрований   

Завантажити / скачати мультфільм українською



відео для новачків



 Зареєстрований:   2020-05-16 22:16
 Розмір:   2.02 GB 
 Оцінка мультфільму:   8.5/10 (Голосів: 6)
   
Інші релізи
   Король сафарі / Khumba (2013) 1080p Ukr/Eng 11FrYkT  2 / 0   5.85 GB   2015-02-17 19:37 
   Король сафарі / Khumba (2013) 720p Ukr/Eng 11FrYkT  3 / 0   2.9 GB   2015-02-17 19:03 
   Король сафарі / Khumba (2013) Ukr/Eng patriot2305  2 / 0   1.45 GB   2015-02-17 11:12 
Ваш часовий пояс: GMT + 2 Години

Нова тема   Відповісти