Продавчиня (Продавщиця) / Shopgirl [UnCut] (2005) 720p 2xUkr/Eng | Sub Eng

Нові коментарі

Нова тема   Відповісти
Автор Повідомлення
Anonymous 







2020-05-16 12:13  
Продавчиня (Продавщиця) / Shopgirl [UnCut] (2005) 720p 2xUkr/Eng | Sub Eng

Продавчиня (Продавщиця) / Shopgirl [UnCut] (2005) 720p 2xUkr/Eng | Sub Eng


Жанр: драма, романтичний
Країна: США



Кінокомпанія: Touchstone Pictures, Hyde Park Entertainment, Brass Hat Films
Режисер: Ананд Такер
Актори: Стів Мартін, Клер Дейнс, Джейсон Шварцман, Сем Боттомс, Шон Крістіан, Френсис Конрой, Джина Доктор, Шейн Еделман, Енн Марі Хауард, Ребека Піджін, Джошуа Снайдер, Бріджет Уїлсон

Сюжет:
Художниця-початківець, Мірабель, працює продавщицею в одному з торгових центрів Беверлі-хіллз і ніяк не може звільнитися від відчуття даремності своєї роботи і нудьги відносин з молодим музикантом Джеремі, що не здобув слави.

Так продовжується до тих пір, поки одного прекрасного дня вона не зустрічає Рея Портера — вже немолодого розведеного багача, який не проти стати її «хлопцем». Тепер Мірабель повинна зробити вибір між двома претендентами на її взаємність, а це виявляється не так і просто.


Тривалість: 01:46:11
Якість: 720p
Відео:
кодек:
розмір кадру: 1280x542
бітрейт: 4186 кб/с

Аудіо # 1:
мова: українська
переклад: багатоголосий закадровий
кодек: 2.0
бітрейт: 192 кб/с
Примітка: є проміжки без перекладу (декілька хвилин). На ці проміжки в наявності українські субтитри. Також одна фраза була взята з озвучення від каналу ТЕТ, так як вона була вирізана на каналі К1

Аудіо # 2:
мова: українська
переклад: багатоголосий закадровий
кодек: 2.0
бітрейт: 192 кб/с
Примітка: є проміжки без перекладу (декілька хвилин). На ці проміжки в наявності українські субтитри

Аудіо # 3:
мова: англійська
переклад: оригінал
кодек: 5.1
бітрейт: 384 кб/с

Субтитри:
мова: українська (на місця без перекладу)
тип: програмні (м'які)
формат: *.srt

Субтитри:
мова: англійська
тип: програмні (м'які)
формат: *.srt
Info
General
Unique ID : 217319666617874251123284660362170864900 (0xA37E3ECEE358FBAD897269ED5EC01504)
Complete name : E:\Toloka\2020\Shopgirl (2005) 720p.
Format :
Format version : Version 4
File size : 3.75 GiB
Duration : 1 h 46 min
Overall bit rate : 5 055 kb/s
Encoded date : UTC 2020-05-16 09:04:05
Writing application : v6.1.0 ('Old Devil') built on Mar 4 2013 09:10:42
Writing library : libebml v1.3.0 + v1.4.0

Video
ID : 1
Format : AVC
Format/Info : Advanced Video Codec
Format profile : [email protected]
Format settings : 2 Ref Frames
Format settings, CABAC : No
Format settings, RefFrames : 2 frames
Codec ID : V_MPEG4/ISO/AVC
Duration : 1 h 46 min
Bit rate : 4 186 kb/s
Width : 1 280 pixels
Height : 542 pixels
Display aspect ratio : 2.35:1
Frame rate mode : Constant
Frame rate : 23.976 FPS
Color space : YUV
Chroma subsampling : 4:2:0
Bit depth : 8 bits
Scan type : Progressive
Bits/(Pixel*Frame) : 0.252
Stream size : 3.10 GiB (83%)
Language : English
Default : Yes
Forced : No
Color range : Limited
Color primaries : BT.709
Transfer characteristics : BT.709
Matrix coefficients : BT.709

Audio #1
ID : 2
Format : AC-3
Format/Info : Audio Coding 3
Commercial name : Dolby Digital
Codec ID : A_AC3
Duration : 1 h 46 min
Bit rate mode : Constant
Bit rate : 192 kb/s
Channel(s) : 2 channels
Channel layout : L R
Sampling rate : 48.0 kHz
Frame rate : 31.250 FPS (1536 SPF)
Bit depth : 16 bits
Compression mode : Lossy
Stream size : 146 MiB (4%)
Title : UKR (K1)
Language : Ukrainian
Service kind : Complete Main
Default : Yes
Forced : Yes

Audio #2
ID : 3
Format : AC-3
Format/Info : Audio Coding 3
Commercial name : Dolby Digital
Codec ID : A_AC3
Duration : 1 h 46 min
Bit rate mode : Constant
Bit rate : 192 kb/s
Channel(s) : 2 channels
Channel layout : L R
Sampling rate : 48.0 kHz
Frame rate : 31.250 FPS (1536 SPF)
Bit depth : 16 bits
Compression mode : Lossy
Stream size : 146 MiB (4%)
Title : UKR (TET)
Language : Ukrainian
Service kind : Complete Main
Default : No
Forced : No

Audio #3
ID : 4
Format : AC-3
Format/Info : Audio Coding 3
Commercial name : Dolby Digital
Codec ID : A_AC3
Duration : 1 h 46 min
Bit rate mode : Constant
Bit rate : 384 kb/s
Channel(s) : 6 channels
Channel layout : L R C LFE Ls Rs
Sampling rate : 48.0 kHz
Frame rate : 31.250 FPS (1536 SPF)
Bit depth : 16 bits
Compression mode : Lossy
Stream size : 292 MiB (8%)
Title : ENG
Language : English
Service kind : Complete Main
Default : No
Forced : No

Text #1
ID : 5
Format : UTF-8
Codec ID : S_TEXT/UTF8
Codec ID/Info : UTF-8 Plain Text
Title : UKR (Forced)
Language : Ukrainian
Default : Yes
Forced : Yes

Text #2
ID : 6
Format : UTF-8
Codec ID : S_TEXT/UTF8
Codec ID/Info : UTF-8 Plain Text
Language : English
Default : No
Forced : No

Menu
00:00:00.000 : en:Opening Credits / Mirabelle, Hoping To Begin Life
00:06:23.000 : en:Jeremy, An OK Guy
00:14:38.000 : en:Afterglow?
00:24:03.000 : en:Ray Porter, A Man Over Fifty
00:39:03.000 : en:Friday Night
00:48:17.000 : en:Being Really Clear
01:01:11.000 : en:"I Am Sorry"
01:14:29.000 : en:Hard To Be Close
01:18:38.000 : en:Living In The Moment
01:25:46.000 : en:Hurting Now
01:30:31.000 : en:This Is The Moment
01:37:23.000 : en:"It Was Life" / End Credits
Скріншоти










За доріжки подяка п.: roseintherain, bodia87
Особиста подяка пану denixx за надану матеріальну допомогу на підтримку цього і майбутніх релізів.
Джерело:


 Трекер:    Зареєстрований   

Завантажити / скачати фільм українською



відео для новачків



 Зареєстрований:   2020-05-16 12:13
 Розмір:   3.75 GB 
 Оцінка фільму:   7/10 (Голосів: 3)
   
Інші релізи
   Продавчиня / Shopgirl (2005) -AVC Ukr/Eng bodia87  4 / 0   857 MB   2013-10-09 21:41 
Ваш часовий пояс: GMT + 2 Години

Нова тема   Відповісти