Людина-невидимка / The Invisible Man (2020) Remux 1080p Ukr/Eng | Sub Eng

Нові коментарі

Нова тема   Відповісти
Автор Повідомлення
Anonymous 







2020-05-15 19:19  
Людина-невидимка / The Invisible Man (2020) Remux 1080p Ukr/Eng | Sub Eng



Альтернативний постер

«Все, що ти не бачиш може тебе знищити»



Жанр: детектив, жахи, трилер, фантастика
Країна: Австралія, США, Канада, Велика Британія



Кінокомпанія: Universal Pictures, Blumhouse Productions, Goalpost Pictures
Режисер: Лі Воннел
Актори: Елізабет Мосс, Олівер Джексон-Коен, Харріет Дайер, Елдіс Ходж, Сторм Рейд, Майкл Дорман, Бенедікт Харді

Сюжет:
Опинившись у пастці відносин з багатим та геніальним вченим Едріаном Гріффіном, які обернулися жахливим насильством, Сесілія Касс тікає під покровом ночі. Незабаром її екс-бойфренд здійснює самогубство і залишає їй у спадок значну частку своїх величезних статків. Однак жінка підозрює, що його смерть була брехнею і що насправді він все ще живий. Зіткнувшись з низкою моторошних та смертельно небезпечних подій, Сесілія поступово починає божеволіти, відчайдушно намагаючись довести усім, що Едріан став невидимим і продовжує її переслідувати.


Тривалість: 02:04:23
Якість: Remux 1080p

Відео:
кодек:
розмір кадру: 1920x1080
бітрейт: 27100 кб/с

Аудіо # 1:
мова: українська
переклад: професійний дубльований | студія LeDoyen
кодек: 5.1
бітрейт: 384 кб/с

Аудіо # 2:
мова: англійська
переклад: оригінал
кодек: 5.1
бітрейт: 448 кб/с

Аудіо # 3:
мова: англійська
переклад: оригінал
кодек: TrueHD + Atmos 7.1
бітрейт: 3050 кб/с

Субтитри # 1 (Forced):
мова: українська
тип: пререндерні
формат: *.pgs

Субтитри # 2 (Full):
мова: англійська
тип: пререндерні
формат: *.pgs
Info
Код:
General
Complete name                            : The Invisible Man (2020) Remux 1080p [UKR_ENG] [Hurtom].
Format                                   :
Format version                           : Version 4
File size                                : 27.0 GiB
Duration                                 : 2 h 4 min
Overall bit rate mode                    : Variable
Overall bit rate                         : 31.0 Mb/s
Movie name                               : Людина-невидимка / The Invisible Man (2020)
Encoded date                             : UTC 2020-06-25 21:15:56
Writing application                      : v30.1.0 ('Forever And More') 64-bit
Writing library                          : libebml v1.3.6 + v1.4.9
Cover                                    : Yes
Attachments                              : cover.jpg

Video
ID                                       : 1
Format                                   : AVC
Format/Info                              : Advanced Video Codec
Format profile                           : [email protected]
Format settings                          : CABAC / 4 Ref Frames
Format settings, CABAC                   : Yes
Format settings, RefFrames               : 4 frames
Codec ID                                 : V_MPEG4/ISO/AVC
Duration                                 : 2 h 4 min
Bit rate mode                            : Variable
Bit rate                                 : 27.1 Mb/s
Maximum bit rate                         : 31.0 Mb/s
Width                                    : 1 920 pixels
Height                                   : 1 080 pixels
Display aspect ratio                     : 16:9
Frame rate mode                          : Constant
Frame rate                               : 23.976 (24000/1001) FPS
Color space                              : YUV
Chroma subsampling                       : 4:2:0
Bit depth                                : 8 bits
Scan type                                : Progressive
Bits/(Pixel*Frame)                       : 0.544
Stream size                              : 23.5 GiB (87%)
Default                                  : Yes
Forced                                   : No

Audio #1
ID                                       : 2
Format                                   : AC-3
Format/Info                              : Audio Coding 3
Commercial name                          : Dolby Digital
Codec ID                                 : A_AC3
Duration                                 : 2 h 4 min
Bit rate mode                            : Constant
Bit rate                                 : 384 kb/s
Channel(s)                               : 6 channels
Channel layout                           : L R C LFE Ls Rs
Sampling rate                            : 48.0 kHz
Frame rate                               : 31.250 FPS (1536 SPF)
Bit depth                                : 16 bits
Compression mode                         : Lossy
Stream size                              : 342 MiB (1%)
Title                                    : 5.1 | 384
Language                                 : Ukrainian
Service kind                             : Complete Main
Default                                  : Yes
Forced                                   : No

Audio #2
ID                                       : 3
Format                                   : AC-3
Format/Info                              : Audio Coding 3
Commercial name                          : Dolby Digital
Codec ID                                 : A_AC3
Duration                                 : 2 h 4 min
Bit rate mode                            : Constant
Bit rate                                 : 448 kb/s
Channel(s)                               : 6 channels
Channel layout                           : L R C LFE Ls Rs
Sampling rate                            : 48.0 kHz
Frame rate                               : 31.250 FPS (1536 SPF)
Bit depth                                : 16 bits
Compression mode                         : Lossy
Stream size                              : 399 MiB (1%)
Title                                    : 5.1 | 448
Language                                 : English
Service kind                             : Complete Main
Default                                  : No
Forced                                   : No

Audio #3
ID                                       : 4
Format                                   : MLP FBA 16-ch
Format/Info                              : Meridian Lossless Packing FBA with 16-channel presentation
Commercial name                          : Dolby TrueHD with Dolby Atmos
Codec ID                                 : A_TRUEHD
Duration                                 : 2 h 4 min
Bit rate mode                            : Variable
Bit rate                                 : 3 050 kb/s
Maximum bit rate                         : 5 652 kb/s
Channel(s)                               : 8 channels
Channel layout                           : L R C LFE Ls Rs Lb Rb
Sampling rate                            : 48.0 kHz
Frame rate                               : 1 200.000 FPS (40 SPF)
Compression mode                         : Lossless
Stream size                              : 2.65 GiB (10%)
Title                                    : TrueHD 7.1 | 3050
Language                                 : English
Default                                  : No
Forced                                   : No
Number of dynamic objects                : 11
Bed channel count                        : 1 channel
Bed channel configuration                : LFE

Text #1
ID                                       : 5
Format                                   : PGS
Muxing mode                              : zlib
Codec ID                                 : S_HDMV/PGS
Codec ID/Info                            : Picture based subtitle format used on BDs/HD-DVDs
Duration                                 : 1 h 45 min
Bit rate                                 : 360 b/s
Count of elements                        : 24
Stream size                              : 279 KiB (0%)
Title                                    : Forced
Language                                 : Ukrainian
Default                                  : Yes
Forced                                   : No

Text #2
ID                                       : 6
Format                                   : PGS
Muxing mode                              : zlib
Codec ID                                 : S_HDMV/PGS
Codec ID/Info                            : Picture based subtitle format used on BDs/HD-DVDs
Duration                                 : 1 h 50 min
Bit rate                                 : 24.9 kb/s
Count of elements                        : 2096
Stream size                              : 19.6 MiB (0%)
Language                                 : English
Default                                  : No
Forced                                   : No
Скріншоти



Джерело: &
Особиста оцінка: 0 - не дивився


Золотий реліз (завантажене не впливає на рейтинг)
 Трекер:    Зареєстрований   

Завантажити / скачати фільм українською



відео для новачків



 Зареєстрований:   2020-06-26 11:17
 Розмір:   26.96 GB 
 Оцінка фільму:   8.7/10 (Голосів: 13)
   
sandman 
VIP


З нами з: 12.08.12
Востаннє: 19.09.20
Повідомлень: 361

2020-05-21 14:24  
На диво видався дуже навіть норм фільм
Anonymous 







2020-06-26 11:20  
Заміна аудіо на якісніше. 
Ваш часовий пояс: GMT + 2 Години

Нова тема   Відповісти