Паперовий будинок (Сезон 2) / La Casa de Papel / Money Heist (Season 2) (2017) AVC Ukr/Spa | Sub Eng

Нові коментарі

Нова тема   Відповісти
Автор Повідомлення
Цікава ідея 
VIP


З нами з: 26.12.11
Востаннє: 22.09.20
Повідомлень: 664

2020-05-15 15:27  
1 сезон: | AVC | 1080p
2 сезон: | AVC | 1080p
3 сезон: | AVC | 1080p
4 сезон: | AVC | 1080p

Паперовий будинок (Сезон 2) / La Casa de Papel / Money Heist (Season 2) (2017) AVC Ukr/Spa | Sub Eng

Паперовий будинок (Сезон 2) / La Casa de Papel / Money Heist (Season 2) (2017) AVC Ukr/Spa | Sub Eng


Жанр: бойовик, детектив, кримінальний, трилер
Країна: Іспанія



Кінокомпанія / телеканал: Vancouver Media, Netflix
Режисери: Хесус Кольменар, Алекс Родріго, Алехандро Бассоно
Актори: Едан Мосес, Урсула Корберо, Іціар Ітуньйо, Альваро Морте, Педро Алонсо, Альба Флоренс, Мігель Ерран

Сюжет:
Щоб здійснити найбільше пограбування в історії таємничий «Професор» знаходить вісім грабіжників, яким нічого втрачати. П'ять місяців підготовки й тренувань, щоб пограбувати одне з найбільш захищених місць Іспанії - Національний монетний двір.


Перекладено та озвучено ТО "Цікава Ідея" за підтримки fishMD


Український трейлер в нашому озвученні.


ЯКЩО НЕ ПРАЦЮЄ ТИЦЬ СЮДИ


Тривалість: 1 серія: ~ 40 хв. (цілком серій: 9)
Перелік серій:

01. Episode 1
02. Episode 2
03. Episode 3
04. Episode 4
05. Episode 5
06. Episode 6
07. Episode 7
08. Episode 8
09. Episode 9
Якість: AVC
Відео:
кодек:
розмір кадру: 720 x 400
бітрейт: 1 100 кб/с

Аудіо # 1:
мова: українська | "Цікава Ідея"
переклад: професійний багатоголосий закадровий
кодек: 2.0
бітрейт: 192 кб/с

Аудіо # 2:
мова: іспанська
переклад: оригінал
кодек: E- 2.0
бітрейт: 128 кб/с

Субтитри:
мова: англійська
тип: програмні (м'які)
формат: *.srt
Info
Код:
Format                      :
Format version              : Version 4
File size                   : 432 MiB
Duration                    : 42 min 56 s
Overall bit rate            : 1 408 kb/s
Movie name                  : Паперовий будинок / Money Heist - S02E01 (2017) AVC [Ukr.Spa] [Цікава Ідея]
Encoded date                : UTC 2020-05-15 11:54:51
Writing application         : v6.8.0 ('Theme for Great Cities') 32bit built on Mar  2 2014 21:27:07
Writing library             : libebml v1.3.0 + v1.4.1
Cover                       : Yes
Attachments                 : cover.png

Video
ID                          : 1
Format                      : AVC
Format/Info                 : Advanced Video Codec
Format profile              : [email protected]
Format settings             : CABAC / 5 Ref Frames
Format settings, CABAC      : Yes
Format settings, Reference  : 5 frames
Codec ID                    : V_MPEG4/ISO/AVC
Duration                    : 42 min 56 s
Bit rate                    : 1 100 kb/s
Width                       : 720 pixels
Height                      : 400 pixels
Display aspect ratio        : 16:9
Frame rate mode             : Constant
Frame rate                  : 25.000 FPS
Color space                 : YUV
Chroma subsampling          : 4:2:0
Bit depth                   : 8 bits
Scan type                   : Progressive
Bits/(Pixel*Frame)          : 0.153
Stream size                 : 325 MiB (75%)
Writing library             : core 148 r2795M aaa9aa8
Encoding settings           : cabac=1 / ref=5 / deblock=1:-1:-1 / analyse=0x3:0x113 / me=umh / subme=9 / psy=1 / psy_rd=1.00:0.15 / mixed_ref=1 / me_range=16 / chroma_me=1 / trellis=2 / 8x8dct=1 / cqm=0 / deadzone=21,11 / fast_pskip=1 / chroma_qp_offset=-3 / threads=24 / lookahead_threads=2 / sliced_threads=0 / nr=0 / decimate=1 / interlaced=0 / bluray_compat=0 / constrained_intra=0 / bframes=3 / b_pyramid=2 / b_adapt=2 / b_bias=0 / direct=3 / weightb=1 / open_gop=0 / weightp=2 / keyint=250 / keyint_min=25 / scenecut=40 / intra_refresh=0 / rc_lookahead=50 / rc=abr / mbtree=1 / bitrate=1100 / ratetol=1.0 / qcomp=0.60 / qpmin=0 / qpmax=69 / qpstep=4 / ip_ratio=1.40 / aq=1:1.00
Default                     : Yes
Forced                      : No

Audio #1
ID                          : 2
Format                      : AC-3
Format/Info                 : Audio Coding 3
Commercial name             : Dolby Digital
Codec ID                    : A_AC3
Duration                    : 42 min 56 s
Bit rate mode               : Constant
Bit rate                    : 192 kb/s
Channel(s)                  : 2 channels
Channel layout              : L R
Sampling rate               : 48.0 kHz
Frame rate                  : 31.250 FPS (1536 SPF)
Bit depth                   : 16 bits
Compression mode            : Lossy
Stream size                 : 59.0 MiB (14%)
Title                       : Українська
Language                    : Ukrainian
Service kind                : Complete Main
Default                     : Yes
Forced                      : No

Audio #2
ID                          : 3
Format                      : E-AC-3
Format/Info                 : Enhanced AC-3
Commercial name             : Dolby Digital Plus
Codec ID                    : A_EAC3
Duration                    : 42 min 56 s
Bit rate mode               : Constant
Bit rate                    : 128 kb/s
Channel(s)                  : 2 channels
Channel layout              : L R
Sampling rate               : 48.0 kHz
Frame rate                  : 31.250 FPS (1536 SPF)
Compression mode            : Lossy
Stream size                 : 39.3 MiB (9%)
Title                       : European Spanish
Language                    : Spanish
Service kind                : Complete Main
Default                     : No
Forced                      : No

Text
ID                          : 4
Format                      : UTF-8
Codec ID                    : S_TEXT/UTF8
Codec ID/Info               : UTF-8 Plain Text
Title                       : English
Language                    : English
Default                     : No
Forced                      : No
Скріншоти



Озвучено творчим об'єднанням:
Переклад: Федір Сидорук.
Ролі озвучили: Семен Птаха, Олексій Сафін, Юлія Малахова, Андрій Корзаченко та Олександр Чернов.


Авторський реліз (завантажувати можна без реєстрації)
 Трекер:    Зареєстрований   

Завантажити / скачати серіал українською



відео для новачків



 Зареєстрований:   2020-05-15 15:28
 Розмір:   3.99 GB 
 Оцінка серіалу:   9.1/10 (Голосів: 33)
 Перекладено та озвучено 2 сезон!
   
Цікава ідея 
VIP


З нами з: 26.12.11
Востаннє: 22.09.20
Повідомлень: 664

2020-05-15 15:30  
Друзі, ми переклали та озвучили 2 сезон!

Бажаємо приємного перегляду!

Misharini 
Новенький


З нами з: 04.02.20
Востаннє: 29.06.20
Повідомлень: 1

2020-05-15 16:49  
Дякую, ви найкращі)))))
Цікава ідея 
VIP


З нами з: 26.12.11
Востаннє: 22.09.20
Повідомлень: 664

2020-05-15 16:57  
Misharini написано:
Дякую, ви найкращі)))))

Раді чути, стараємось!))

AnubiS 
VIP


З нами з: 10.05.09
Востаннє: 22.09.20
Повідомлень: 389

2020-05-15 16:57  
Дякую!)
MelnikSerg 
Частий відвідувач


З нами з: 27.01.17
Востаннє: 19.09.20
Повідомлень: 36

2020-06-08 20:18  
Порівняно з першим сезоном - трішки забагато мелодраматичних моментів, як на мене. А в усьому іншому - чудовий! Дуже дякую за чудовий переклад і озвучку!
Ваш часовий пояс: GMT + 2 Години

Нова тема   Відповісти