Кімната 213 / Rum 213 (2017) AVC Ukr/Swe | Sub Swe

Нові коментарі

Нова тема   Відповісти
Автор Повідомлення
Anonymous 







2020-05-15 01:16  
Кімната 213 / Rum 213 (2017) AVC Ukr/Swe | Sub Swe



Жанр: пригодницький, драма, жахи
Країна: Швеція



Кінокомпанія: Dansk Skalle
Режисер: Емелі Ліндблюм
Актори: Анкі Ліден, Арман Фанні, Лізетт Паглер, Паула Сундберг, Паскаль Андерссон, Елла Фогельстрем, Вільма Лундгрен, Єлєна Овсєпян

Сюжет:
Коли дванадцятирічна Ельвіра вирушає у літній табір, в її кімнаті починають відбуватися дивні речі.
Речі, які неможливо пояснити - якщо ви не вірите в привидів.


Тривалість: 01:17:36
Якість:
Відео:
кодек:
розмір кадру: 1024 х 428
бітрейт: 2800 кб/с

Аудіо # 1:
мова: українська
переклад: двоголосий закадровий | UA: КУЛЬТУРА
кодек: 2.0
бітрейт: 192 кб/с

Аудіо # 2:
мова: шведська
переклад: оригінал
кодек: 2.0
бітрейт: 119 кб/с

Субтитри:
мова: шведська
тип: програмні (м'які)
формат: *.srt
Скріншоти













MI
Format :
Format version : Version 4
File size : 1.69 GiB
Duration : 1 h 17 min
Overall bit rate : 3 115 kb/s
Encoded date : UTC 2020-05-15 07:46:26
Writing application : v44.0.0 ('Domino') 64-bit
Writing library : libebml v1.3.10 + v1.5.2
Cover : Yes
Attachments : cover.jpg

Video
ID : 1
Format : AVC
Format/Info : Advanced Video Codec
Format profile : [email protected]
Format settings : CABAC / 8 Ref Frames
Format settings, CABAC : Yes
Format settings, Reference : 8 frames
Codec ID : V_MPEG4/ISO/AVC
Duration : 1 h 17 min
Bit rate : 2 800 kb/s
Width : 1 024 pixels
Height : 428 pixels
Display aspect ratio : 2.40:1
Frame rate mode : Constant
Frame rate : 25.000 FPS
Color space : YUV
Chroma subsampling : 4:2:0
Bit depth : 8 bits
Scan type : Progressive
Bits/(Pixel*Frame) : 0.256
Stream size : 1.52 GiB (90%)
Writing library : core 157 r2969 d4099dd
Encoding settings : cabac=1 / ref=8 / deblock=1:0:0 / analyse=0x3:0x133 / me=umh / subme=10 / psy=1 / psy_rd=1.00:0.00 / mixed_ref=1 / me_range=32 / chroma_me=1 / trellis=2 / 8x8dct=1 / cqm=0 / deadzone=21,11 / fast_pskip=0 / chroma_qp_offset=-2 / threads=6 / lookahead_threads=1 / sliced_threads=0 / nr=100 / decimate=0 / interlaced=0 / bluray_compat=0 / constrained_intra=0 / bframes=8 / b_pyramid=2 / b_adapt=2 / b_bias=0 / direct=3 / weightb=1 / open_gop=1 / weightp=2 / keyint=250 / keyint_min=25 / scenecut=40 / intra_refresh=0 / rc_lookahead=40 / rc=2pass / mbtree=1 / bitrate=2800 / ratetol=1.0 / qcomp=0.60 / qpmin=0 / qpmax=69 / qpstep=4 / cplxblur=20.0 / qblur=0.5 / vbv_maxrate=31250 / vbv_bufsize=31250 / nal_hrd=none / filler=0 / ip_ratio=1.40 / aq=1:1.00
Default : Yes
Forced : No

Audio #1
ID : 2
Format : AC-3
Format/Info : Audio Coding 3
Commercial name : Dolby Digital
Codec ID : A_AC3
Duration : 1 h 17 min
Bit rate mode : Constant
Bit rate : 192 kb/s
Channel(s) : 2 channels
Channel layout : L R
Sampling rate : 48.0 kHz
Frame rate : 31.250 FPS (1536 SPF)
Compression mode : Lossy
Stream size : 107 MiB (6%)
Title : DVO - UA: КУЛЬТУРА
Language : Ukrainian
Service kind : Complete Main
Default : Yes
Forced : No

Audio #2
ID : 3
Format : LC
Format/Info : Advanced Audio Codec Low Complexity
Codec ID : A_AAC-2
Duration : 1 h 17 min
Bit rate : 119 kb/s
Channel(s) : 2 channels
Channel layout : L R
Sampling rate : 48.0 kHz
Frame rate : 46.875 FPS (1024 SPF)
Compression mode : Lossy
Stream size : 66.2 MiB (4%)
Default : No
Forced : No

Text
ID : 4
Format : UTF-8
Codec ID : S_TEXT/UTF8
Codec ID/Info : UTF-8 Plain Text
Duration : 1 h 15 min
Bit rate : 44 b/s
Count of elements : 616
Stream size : 24.6 KiB (0%)
Default : No
Forced : No
Подяка: пану POMEO за запис сирої доріжки
Джерело:
Особиста оцінка: 0 - не дивився


 Трекер:    Зареєстрований   

Завантажити / скачати фільм українською



відео для новачків



 Зареєстрований:   2020-05-15 10:54
 Розмір:   1.69 GB 
 Оцінка фільму:   7.5/10 (Голосів: 4)
   
bot 
робот


З нами з: 30.09.07
Востаннє: 26.05.05
Повідомлень: 24917

2020-05-15 10:53  
Тему перенесено з Анонси релізів до форуму Фільми


leicheman

ibsd 
Свій


З нами з: 06.09.10
Востаннє: 02.07.20
Повідомлень: 83

2020-05-18 10:36  
прикольно назва виглядає... троє дівчаток і RUM Wide grin
Ваш часовий пояс: GMT + 2 Години

Нова тема   Відповісти