Людина з Ріо / L'homme de Rio (1964) Remux 1080p Ukr/Fre | Sub Fre/Eng

Нові коментарі

Нова тема   Відповісти
Автор Повідомлення
MakRA 
VIP


З нами з: 11.11.18
Востаннє: 19.09.20
Повідомлень: 1114

2020-05-14 19:18  
Людина з Ріо / L'homme de Rio (1964) Remux 1080p Ukr/Fre | Sub Fre/Eng


Альтернативні оригінальні постери:








Жанр: екшн, пригодницький, комедія
Країна: Франція



Кінокомпанія: Dear Film Produzione, Les Films Ariane, Les Productions Artistes Associés
Режисер: Філіп де Брока [Philippe de Broca]
Актори: Жан-Поль Бельмондо [Jean-Paul Belmondo], Франсуаза Дорлеак [Françoise Dorléac], Жан Серве [Jean Servais], Сімон Ренан [Simone Renant], Роджер Дюма [Roger Dumas], Даніель Чеккальді [Daniel Ceccaldi], Мілтон Рібейро [Milton Ribeiro], Адольфо Челі [Adolfo Celi], Убірасі де Олівейра [Ubiracy De Oliveira]

Сюжет:
Викрадена безцінна індіанська статуетка, а разом з нею і дочка господаря скарбу - красуня Аньєс. Наречений дівчини Адріан відправляється в погоню за викрадачами. Він не уявляє, які випробування його чекають попереду...


Тривалість: 01:55:33
Якість: Remux 1080p
Відео:
кодек:
розмір кадру: 1920 х 1080
бітрейт: 28,4 Mб/с

Аудіо # 1:
мова: українська
переклад: двоголосий закадровий
кодек: 2.0
бітрейт: 192 кб/с

Аудіо # 2:
мова: французька
переклад: оригінал
кодек: -HD MA 2.0
бітрейт: 1703 кб/с

Аудіо # 3:
мова: французька
переклад: оригінал
кодек: 2.0
бітрейт: 224 кб/с

Субтитри # 1: (Full)
мова: французька
тип: програмні (м'які)
формат: *.srt

Субтитри # 2: (Full)
мова: англійська
тип: програмні (м'які)
формат: *.srt

Збережено оригінальні розділи, як на Blu-ray.
Info
General
Unique ID : 69407397243642291305759911248400260353 (0x343760E37F9B5AEAF92C2970CDBC9D01)
Complete name : E:\+Фільмографії- Жан-Поль Бельмондо [Jean-Paul Belmondo]\L'homme de Rio (1964) Remux 1080p UkrFre Sub FreEng [Hurtom].
Format :
Format version : Version 4
File size : 24.7 GiB
Duration : 1 h 55 min
Overall bit rate mode : Variable
Overall bit rate : 30.5 Mb/s
Movie name : Людина з Ріо / L'homme de Rio (1964) Remux 1080p Ukr/Fre | Sub Fre/Eng [Hurtom]
Encoded date : UTC 2020-05-15 22:55:15
Writing application : v44.0.0 ('Domino') 64-bit
Writing library : libebml v1.3.10 + v1.5.2
Cover : Yes
Attachments : cover.jpg

Video
ID : 1
Format : AVC
Format/Info : Advanced Video Codec
Format profile : [email protected]
Format settings : CABAC / 4 Ref Frames
Format settings, CABAC : Yes
Format settings, Reference fra : 4 frames
Format settings, GOP : M=3, N=24
Codec ID : V_MPEG4/ISO/AVC
Duration : 1 h 55 min
Bit rate mode : Variable
Bit rate : 28.4 Mb/s
Maximum bit rate : 35.0 Mb/s
Width : 1 920 pixels
Height : 1 080 pixels
Display aspect ratio : 16:9
Frame rate mode : Constant
Frame rate : 24.000 FPS
Standard : NTSC
Color space : YUV
Chroma subsampling : 4:2:0
Bit depth : 8 bits
Scan type : Progressive
Bits/(Pixel*Frame) : 0.571
Stream size : 22.9 GiB (93%)
Title : L'homme de Rio (1964) Remux 1080p Ukr/Fre | Sub Fre/Eng [Hurtom]
Language : Ukrainian
Default : Yes
Forced : Yes
Color range : Limited
Color primaries : BT.709
Transfer characteristics : BT.709
Matrix coefficients : BT.709

Audio #1
ID : 2
Format : AC-3
Format/Info : Audio Coding 3
Commercial name : Dolby Digital
Codec ID : A_AC3
Duration : 1 h 55 min
Bit rate mode : Constant
Bit rate : 192 kb/s
Channel(s) : 2 channels
Channel layout : L R
Sampling rate : 48.0 kHz
Frame rate : 31.250 FPS (1536 SPF)
Compression mode : Lossy
Stream size : 159 MiB (1%)
Title : DVO [ENTER] 2.0
Language : Ukrainian
Service kind : Complete Main
Default : Yes
Forced : Yes

Audio #2
ID : 3
Format : XLL
Format/Info : Digital Theater Systems
Commercial name : -HD Master Audio
Codec ID : A_DTS
Duration : 1 h 55 min
Bit rate mode : Variable
Bit rate : 1 703 kb/s
Channel(s) : 2 channels
Channel layout : L R
Sampling rate : 48.0 kHz
Frame rate : 93.750 FPS (512 SPF)
Bit depth : 16 bits
Compression mode : Lossless
Stream size : 1.37 GiB (6%)
Title : Original -HD MA 2.0
Language : French
Default : No
Forced : No

Audio #3
ID : 4
Format : AC-3
Format/Info : Audio Coding 3
Commercial name : Dolby Digital
Codec ID : A_AC3
Duration : 1 h 55 min
Bit rate mode : Constant
Bit rate : 224 kb/s
Channel(s) : 2 channels
Channel layout : L R
Sampling rate : 48.0 kHz
Frame rate : 31.250 FPS (1536 SPF)
Compression mode : Lossy
Stream size : 185 MiB (1%)
Title : Original 2.0
Language : French
Service kind : Complete Main
Default : No
Forced : No

Text #1
ID : 5
Format : UTF-8
Codec ID : S_TEXT/UTF8
Codec ID/Info : UTF-8 Plain Text
Duration : 1 h 52 min
Bit rate : 30 b/s
Count of elements : 914
Stream size : 25.1 KiB (0%)
Title : Fre (Full)
Language : French
Default : No
Forced : No

Text #2
ID : 6
Format : UTF-8
Codec ID : S_TEXT/UTF8
Codec ID/Info : UTF-8 Plain Text
Duration : 1 h 54 min
Bit rate : 27 b/s
Count of elements : 549
Stream size : 23.1 KiB (0%)
Title : Eng (Full)
Language : English
Default : No
Forced : No

Menu
00:00:00.000 : en:00:00:00.000
00:10:23.875 : en:00:10:23.875
00:20:34.000 : en:00:20:34.000
00:30:48.250 : en:00:30:48.250
00:39:16.542 : en:00:39:16.542
00:47:55.542 : en:00:47:55.542
00:56:30.792 : en:00:56:30.792
01:04:44.167 : en:01:04:44.167
01:15:55.667 : en:01:15:55.667
01:28:15.542 : en:01:28:15.542
01:38:24.000 : en:01:38:24.000
01:44:26.333 : en:01:44:26.333
Скріншоти
Джерело: &
За запис з ТБ дякую п. РОМЕО, синхронізація п. Arsenfpu
Особиста оцінка: 10 - без зайвих вагань рекомендую всім!



Золотий реліз (завантажене не впливає на рейтинг)
 Трекер:    Зареєстрований   

Завантажити / скачати фільм українською



відео для новачків



 Зареєстрований:   2020-05-16 02:37
 Розмір:   24.66 GB 
 Оцінка фільму:   9.8/10 (Голосів: 6)
   
Інші релізи
   Людина з Ріо / L'homme de Rio (1964) sokeel  2 / 0   1.46 GB   2017-09-21 22:45 
   Людина з Ріо / L'homme de Rio (1964) Ukr/Fra Arsenfpu  2 / 0   2.21 GB   2017-09-21 17:47 
   Людина з Ріо / L'homme de Rio (1964) 720p Ukr/Fra | Sub Fra Загора  6 / 0   5.38 GB   2016-06-06 03:49 
bot 
робот


З нами з: 30.09.07
Востаннє: 26.05.05
Повідомлень: 25547

2020-05-14 19:18  
Тему перенесено з Фільми в HD до форуму Анонси релізів


MakRA

bot 
робот


З нами з: 30.09.07
Востаннє: 26.05.05
Повідомлень: 25547

2020-05-16 02:36  
Тему перенесено з Анонси релізів до форуму Фільми в HD


MakRA

Ваш часовий пояс: GMT + 2 Години

Нова тема   Відповісти