Тепер я буду любити тебе (2015) 720p

Нові коментарі

Нова тема   Відповісти
Автор Повідомлення
sergiyko.5 
Забанено
Забанено


З нами з: 25.02.16
Востаннє: 29.10.20
Повідомлень: 3648

2020-05-14 17:20  
Тепер я буду любити тебе (2015) 720p


Тепер я буду любити тебе (2015) 720p

Жанр: драма, комедія
Країна: Україна, Грузія
Кінокомпанія: Інтерфільм, Artizm Ltd.
Режисер: Роман Ширман
Актори: Богдан Бенюк, Ольга Сумська, Кристина Кісельова, Арина Анпілогова, Тимур Полянський ...

Сюжет:
Мішель - модний ресторатор, успішний бізнесмен і чоловік у розквіті сил. Здається, удача посміхається йому скрізь і завжди. Аж раптом на Різдво його життя перевертається з ніг на голову - красуня-дружина йде до іншого… Саме тоді розпочинається закручена колізія цієї дивовижної романтичної історії. Випадкове знайомство з дівчиною, в якої зараз теж проблем в коханні вистачає, змушує Мішеля задуматися: це фортуна чи може чийсь хитромудрий план. Їхні історії переплітаються, доля продовжує іронізувати, а кохання грається з ними і веде за своїм власним сценарієм. На новорічні свята час повірити у справжні дива.




Тривалість: 01:29:27
Якість:

Відео: кодек: розмір кадру: 1280 х 720 бітрейт: ~4000 кб/с
Аудіо: мова: українська переклад: оригінал кодек: 2.0 бітрейт: 128 кб/с
Про файл:
General
Unique ID : 274173930843537295146306435297930690788 (0xCE43FA745F2CA0A5B89557A5DA34C0E4)
Complete name : D:\Documents\Torrents\Тепер я буду любити тебе.2015.720p..
Format :
Format version : Version 4
File size : 2.56 GiB
Duration : 1 h 29 min
Overall bit rate mode : Variable
Overall bit rate : 4 098 kb/s
Movie name : Тепер я буду любити тебе 2015 rip by sergiyko
Encoded date : UTC 2020-05-14 15:22:20
Writing application : v46.0.0 ('No Deeper Escape') 64-bit
Writing library : libebml v1.3.10 + v1.5.2

Video
ID : 1
Format : AVC
Format/Info : Advanced Video Codec
Format profile : [email protected]
Format settings : CABAC / 2 Ref Frames
Format settings, CABAC : Yes
Format settings, Reference : 2 frames
Codec ID : V_MPEG4/ISO/AVC
Duration : 1 h 29 min
Bit rate mode : Variable
Bit rate : 3 970 kb/s
Maximum bit rate : 5 000 kb/s
Width : 1 280 pixels
Height : 720 pixels
Display aspect ratio : 16:9
Frame rate mode : Constant
Frame rate : 25.000 FPS
Standard : PAL
Color space : YUV
Chroma subsampling : 4:2:0
Bit depth : 8 bits
Scan type : Progressive
Bits/(Pixel*Frame) : 0.172
Stream size : 2.48 GiB (97%)
Language : Ukrainian
Default : Yes
Forced : No
Color range : Limited
Color primaries : BT.709
Transfer characteristics : BT.709
Matrix coefficients : BT.709

Audio
ID : 2
Format : LC
Format/Info : Advanced Audio Codec Low Complexity
Codec ID : A_AAC-2
Duration : 1 h 29 min
Bit rate : 125 kb/s
Channel(s) : 2 channels
Channel layout : L R
Sampling rate : 48.0 kHz
Frame rate : 46.875 FPS (1024 SPF)
Compression mode : Lossy
Delay relative to video : -40 ms
Stream size : 80.2 MiB (3%)
Language : Ukrainian
Default : Yes
Forced : No
Скріншоти:


Реліз: sergiyko


Золотий реліз (завантажене не впливає на рейтинг)
 Трекер:    Зареєстрований   

Завантажити / скачати український фільм



відео для новачків



 Зареєстрований:   2020-05-14 17:25
 Розмір:   2.56 GB 
 Оцінка фільму:   9.1/10 (Голосів: 17)
   
andriy_nv 
VIP


З нами з: 27.06.08
Востаннє: 01.03.21
Повідомлень: 1130

2020-05-19 17:30  
на один раз
vilasipet 
Частий відвідувач


З нами з: 19.06.14
Востаннє: 28.02.21
Повідомлень: 49

2020-09-13 13:35  
хороше, якісне (відносно нашого кінематографа)
8 з 10

roxj 
Свій


З нами з: 31.10.17
Востаннє: 28.02.21
Повідомлень: 69

2020-10-05 11:49  
Українська мелодрама, дещо наївна, але непогана.
Один раз подивитися навіть треба, бо своє, а не чуже.

Ваш часовий пояс: GMT + 2 Години

Нова тема   Відповісти