Під водою / Underwater (2020) 1080p H.265 Ukr/Eng | Sub Ukr/Eng

Нові коментарі

Нова тема   Відповісти
Автор Повідомлення
Anonymous 







2020-05-14 16:23  
Під водою / Underwater (2020) 1080p H.265 Ukr/Eng | Sub Ukr/Eng

Під водою / Underwater (2020) 1080p H.265 Ukr/Eng | Sub Ukr/Eng


Жанр: бойовик, жахи
Країна: США
Кінокомпанія: 20th Century Fox Film Corporation, Chernin Entertainment, TSG Entertainment
Режисер: Уільям Юбенк
Актори: Крістен Стюарт, Венсан Кассель, ТіДжей Міллер, Джессіка Хенвік, Джон Галлахер мол., Мамуду Аті, Ганнер Райт, Аманда Труп

Сюжет:
Екіпаж підводних дослідників повинен дістатися до безпечного місця після землетрусу, що руйнує їх підземну лабораторію.

Тривалість: 01:34:58
Якість:

Відео:
кодек: H.265 (HEVC)
розмір кадру: 1920 x 800
бітрейт: 4 990 кб/с
бітова глибина: 10 біт

Увага! Перед завантаженням переконайтесь, що ваш пристрій відтворення (та/або ПЗ) підтримує H.265 (HEVC)

Аудіо # 1:
мова: українська
переклад: професійний дубльований
кодек: AC-3 2.0
бітрейт: 192 кб/с

Аудіо # 2:
мова: англійська
переклад: оригінал
кодек: 5.1
бітрейт: 1510 кб/с

Аудіо # 3:
мова: англійська
переклад: оригінал | коментарі
кодек: AC-3 2.0
бітрейт: 224 кб/с

Субтитри # 1: (Full)
мова: українська
тип: програмні (м'які)
формат: *.srt

Субтитри # 2-3: (Full, SDH)
мова: англійська
тип: програмні (м'які)
формат: *.srt


Info
Код:
General
Unique ID                                : 235462365313650573125916079227074538790 (0xB12466EA595241E7B0EF5F5BCDD86D26)
Complete name                            : Underwater (2020) 1080p H.265 [UKR_ENG] [Hurtom].
Format                                   :
Format version                           : Version 4
File size                                : 4.59 GiB
Duration                                 : 1 h 34 min
Overall bit rate                         : 6 918 kb/s
Movie name                               : Під водою / Underwater (2020)
Encoded date                             : UTC 2020-05-14 12:12:57
Writing application                      : v20.0.0 ('I Am The Sun') 64-bit
Writing library                          : libebml v1.3.5 + v1.4.8
Cover                                    : Yes
Attachments                              : cover.jpg

Video
ID                                       : 1
Format                                   : HEVC
Format/Info                              : High Efficiency Video Coding
Format profile                           : Main [email protected]@High
Codec ID                                 : V_MPEGH/ISO/HEVC
Duration                                 : 1 h 34 min
Bit rate                                 : 4 990 kb/s
Width                                    : 1 920 pixels
Height                                   : 800 pixels
Display aspect ratio                     : 2.40:1
Frame rate mode                          : Constant
Frame rate                               : 23.976 (24000/1001) FPS
Color space                              : YUV
Chroma subsampling                       : 4:2:0
Bit depth                                : 10 bits
Bits/(Pixel*Frame)                       : 0.135
Stream size                              : 3.31 GiB (72%)
Title                                    : Під водою / Underwater (2020)
Writing library                          : x265 3.3+1-g554c887ac:[Windows][MSVC 1924][64 bit] 10bit
Encoding settings                        : cpuid=1111039 / frame-threads=3 / numa-pools=12 / wpp / no-pmode / no-pme / no-psnr / no-ssim / log-level=2 / input-csp=1 / input-res=1920x800 / interlace=0 / total-frames=130179 / level-idc=41 / high-tier=1 / uhd-bd=0 / ref=5 / no-allow-non-conformance / no-repeat-headers / annexb / no-aud / no-hrd / info / hash=0 / no-temporal-layers / open-gop / min-keyint=23 / keyint=240 / gop-lookahead=0 / bframes=10 / b-adapt=2 / b-pyramid / bframe-bias=0 / rc-lookahead=60 / lookahead-slices=4 / scenecut=40 / hist-scenecut=0 / radl=0 / no-splice / no-intra-refresh / ctu=32 / min-cu-size=8 / rect / amp / max-tu-size=32 / tu-inter-depth=4 / tu-intra-depth=4 / limit-tu=1 / rdoq-level=2 / dynamic-rd=0.00 / no-ssim-rd / signhide / no-tskip / nr-intra=0 / nr-inter=0 / no-constrained-intra / no-strong-intra-smoothing / max-merge=4 / limit-refs=2 / limit-modes / me=3 / subme=7 / merange=57 / temporal-mvp / no-frame-dup / no-hme / weightp / weightb / no-analyze-src-pics / deblock=-3:-3 / no-sao / no-sao-non-deblock / rd=6 / selective-sao=0 / no-early-skip / no-rskip / no-fast-intra / no-tskip-fast / no-cu-lossless / no-b-intra / no-splitrd-skip / rdpenalty=0 / psy-rd=2.00 / psy-rdoq=1.00 / no-rd-refine / no-lossless / cbqpoffs=0 / crqpoffs=0 / rc=crf / crf=20.0 / qcomp=0.65 / qpstep=4 / stats-write=0 / stats-read=0 / vbv-maxrate=50000 / vbv-bufsize=50000 / vbv-init=0.9 / crf-max=0.0 / crf-min=0.0 / ipratio=1.40 / pbratio=1.30 / aq-mode=3 / aq-strength=1.00 / no-cutree / zone-count=0 / no-strict-cbr / qg-size=32 / no-rc-grain / qpmax=69 / qpmin=0 / no-const-vbv / sar=1 / overscan=0 / videoformat=5 / range=0 / colorprim=1 / transfer=1 / colormatrix=1 / chromaloc=0 / display-window=0 / cll=0,0 / min-luma=0 / max-luma=1023 / log2-max-poc-lsb=8 / vui-timing-info / vui-hrd-info / slices=1 / no-opt-qp-pps / no-opt-ref-list-length-pps / no-multi-pass-opt-rps / scenecut-bias=0.05 / hist-threshold=0.01 / no-opt-cu-delta-qp / no-aq-motion / no-hdr10 / no-hdr10-opt / no-dhdr10-opt / no-idr-recovery-sei / analysis-reuse-level=0 / analysis-save-reuse-level=0 / analysis-load-reuse-level=0 / scale-factor=0 / refine-intra=0 / refine-inter=0 / refine-mv=1 / refine-ctu-distortion=0 / no-limit-sao / ctu-info=0 / no-lowpass-dct / refine-analysis-type=0 / copy-pic=1 / max-ausize-factor=1.0 / no-dynamic-refine / no-single-sei / no-hevc-aq / no-svt / no-field / qp-adaptation-range=1.00 / no-scenecut-aware-qpconformance-window-offsets / right=0 / bottom=0
Default                                  : Yes
Forced                                   : No
Color range                              : Limited
Color primaries                          : BT.709
Transfer characteristics                 : BT.709
Matrix coefficients                      : BT.709

Audio #1
ID                                       : 2
Format                                   : AC-3
Format/Info                              : Audio Coding 3
Commercial name                          : Dolby Digital
Codec ID                                 : A_AC3
Duration                                 : 1 h 34 min
Bit rate mode                            : Constant
Bit rate                                 : 192 kb/s
Channel(s)                               : 2 channels
Channel layout                           : L R
Sampling rate                            : 48.0 kHz
Frame rate                               : 31.250 FPS (1536 SPF)
Compression mode                         : Lossy
Stream size                              : 130 MiB (3%)
Title                                    : / 2.0 Ch / 192 kbps / ПД
Language                                 : Ukrainian
Service kind                             : Complete Main
Default                                  : Yes
Forced                                   : Yes

Audio #2
ID                                       : 3
Format                                   :
Format/Info                              : Digital Theater Systems
Codec ID                                 : A_DTS
Duration                                 : 1 h 34 min
Bit rate mode                            : Constant
Bit rate                                 : 1 509 kb/s
Channel(s)                               : 6 channels
Channel layout                           : C L R Ls Rs LFE
Sampling rate                            : 48.0 kHz
Frame rate                               : 93.750 FPS (512 SPF)
Bit depth                                : 24 bits
Compression mode                         : Lossy
Stream size                              : 1.00 GiB (22%)
Title                                    : / 5.1 Ch / 1509 kbps / Original
Language                                 : English
Default                                  : No
Forced                                   : No

Audio #3
ID                                       : 4
Format                                   : AC-3
Format/Info                              : Audio Coding 3
Commercial name                          : Dolby Digital
Codec ID                                 : A_AC3
Duration                                 : 1 h 34 min
Bit rate mode                            : Constant
Bit rate                                 : 224 kb/s
Channel(s)                               : 2 channels
Channel layout                           : L R
Sampling rate                            : 48.0 kHz
Frame rate                               : 31.250 FPS (1536 SPF)
Compression mode                         : Lossy
Delay relative to video                  : 29 ms
Stream size                              : 152 MiB (3%)
Title                                    : / 2.0 Ch / 192 kbps / Original / Commentary
Language                                 : English
Service kind                             : Complete Main
Default                                  : No
Forced                                   : No

Text #1
ID                                       : 5
Format                                   : UTF-8
Codec ID                                 : S_TEXT/UTF8
Codec ID/Info                            : UTF-8 Plain Text
Duration                                 : 1 h 33 min
Bit rate                                 : 68 b/s
Count of elements                        : 1145
Stream size                              : 47.1 KiB (0%)
Title                                    : Full
Language                                 : Ukrainian
Default                                  : Yes
Forced                                   : No

Text #2
ID                                       : 6
Format                                   : UTF-8
Codec ID                                 : S_TEXT/UTF8
Codec ID/Info                            : UTF-8 Plain Text
Duration                                 : 1 h 30 min
Bit rate                                 : 52 b/s
Count of elements                        : 1182
Stream size                              : 34.4 KiB (0%)
Title                                    : Full
Language                                 : English
Default                                  : No
Forced                                   : No

Text #3
ID                                       : 7
Format                                   : UTF-8
Codec ID                                 : S_TEXT/UTF8
Codec ID/Info                            : UTF-8 Plain Text
Duration                                 : 1 h 32 min
Bit rate                                 : 60 b/s
Count of elements                        : 1387
Stream size                              : 40.7 KiB (0%)
Title                                    : SDH
Language                                 : English
Default                                  : No
Forced                                   : No

Menu
00:00:00.000                             : en:Chapter 01
00:06:17.627                             : en:Chapter 02
00:09:39.537                             : en:Chapter 03
00:13:25.638                             : en:Chapter 04
00:16:21.897                             : en:Chapter 05
00:20:40.322                             : en:Chapter 06
00:22:51.495                             : en:Chapter 07
00:27:11.171                             : en:Chapter 08
00:30:51.140                             : en:Chapter 09
00:34:26.647                             : en:Chapter 10
00:39:25.154                             : en:Chapter 11
00:43:41.785                             : en:Chapter 12
00:48:40.167                             : en:Chapter 13
00:53:58.109                             : en:Chapter 14
00:56:00.690                             : en:Chapter 15
01:01:53.543                             : en:Chapter 16
01:05:26.172                             : en:Chapter 17
01:08:12.588                             : en:Chapter 18
01:13:52.886                             : en:Chapter 19
01:16:04.476                             : en:Chapter 20
01:18:34.835                             : en:Chapter 21
01:21:22.085                             : en:Chapter 22
01:23:04.062                             : en:Chapter 23
01:29:51.803                             : en:Chapter 24
Світлини




Джерело: &
Особиста оцінка: 0 - не дивився


 Трекер:    Зареєстрований   

Завантажити / скачати фільм українською



відео для новачків



 Зареєстрований:   2020-05-14 16:23
 Розмір:   4.59 GB 
 Оцінка фільму:   8.7/10 (Голосів: 10)
   
Інші релізи
   Під водою / Underwater (2020) 1080p Ukr/Eng | Sub Ukr/Eng staf777  18 / 1   7.19 GB   2020-05-13 22:26 
   Під водою / Underwater (2020) antik_2008  34 / 0   1.29 GB   2020-05-13 22:25 
   Під водою / Underwater (2020) Remux 1080p Ukr/Eng | Sub Ukr/Eng antik_2008  7 / 0   21.5 GB   2020-05-13 21:35 
   Під водою / Underwater (2020) 720p Ukr/Eng | Sub Ukr/Eng igor911  23 / 0   3.57 GB   2020-05-13 21:17 
   Під водою / Underwater (2020) AVC Ukr/Eng | Sub Eng 11FrYkT  38 / 0   2.01 GB   2020-05-13 18:47 
hitmanhunter 
Поважний учасник


З нами з: 15.09.16
Востаннє: 01.06.20
Повідомлень: 175

2020-05-17 15:53  
В цілому хороший фільм, в стилі, і якісно знято, (кіноляпів є, але вони майже не помітні.). 8/10 з невеличкою натяжкою.
GliBond 
Свій


З нами з: 06.10.16
Востаннє: 02.06.20
Повідомлень: 70

2020-05-22 12:10  
Ляпи присутні, вчинки героїв не логічні, вони мене бісили весь фільм. Сценарій, що мав потенціал був злитий в унітаз...
STEVLTH 
Новенький


З нами з: 15.01.18
Востаннє: 25.05.20
Повідомлень: 4

2020-05-23 21:20  
Хороший фільм, подивитись можна.
Luzohid 
Свій


З нами з: 14.09.15
Востаннє: 31.05.20
Повідомлень: 86

2020-05-30 22:41  
Супер, мені сподобалось дуже!! Хтось писав, що події так розвиваються, що не співпереживаєш героям. Ну може то коли ти бездушна тварюка, як ото в фільмі монстри огидні, то і не переживаеш.
Мені особисто жаль героїню, сценаристи вирішили потопить її разом з кайдзю Sad (1) щоб ніхто не думав, що буде продовження

+380954897458 
VIP


З нами з: 02.06.17
Востаннє: 02.06.20
Повідомлень: 845

2020-05-30 22:51  
Luzohid
Останнє речення все потрібно було сховати під спойлером. Wink (2)

Luzohid 
Свій


З нами з: 14.09.15
Востаннє: 31.05.20
Повідомлень: 86

2020-05-31 23:01  
+380954897458, Happy а хіба те, що не заховав розкриє сюжет? ОК, приховаю
І ось, кому цікаві не показані моменти,
тобто extended cut https://www.youtube.com/watch?v=EYyh07nHnQE
і як знімали кіно https://www.youtube.com/watch?v=8WwrEpb-QN4

Ваш часовий пояс: GMT + 2 Години

Нова тема   Відповісти