Роботи / Robots (2005) 1080p H.265 Ukr/Eng | Sub Eng

Нові коментарі

Нова тема   Відповісти
Автор Повідомлення
Anonymous 







2020-05-14 15:21  
Роботи / Robots (2005) 1080p H.265 Ukr/Eng | Sub Eng

Роботи / Robots (2005) 1080p H.265 Ukr/Eng | Sub Eng


Жанр: анімація, мелодрама, комедія, музичний, пригодницький, сімейний, фантастика
Країна: США
Кінокомпанія: Twentieth Century Fox Animation, Blue Sky Studios
Режисер: Карлос Салдана / Carlos Saldanha, Кріс Ведж / Chris Wedge
Актори: Юен МакҐреґор / Ewan McGregor, Геллі Беррі / Halle Berry, Джим Бродбент / Jim Broadbent, Мел Брукс / Mel Brooks, Дженніфер Кулідж / Jennifer Coolidge, Пол Джіаматті / Paul Giamatti, Ден Гедайа / Dan Hedaya, Наташа Ліонн / Natasha Lyonne, Стенлі Тучі / Stanley Tucci, Робін Вільямс / Robin Williams, Пола Абдул / Paula Abdul, Джеймс Ерл Джонс / James Earl Jones та інші

Сюжет:
Вперше вам відкриється повністю вигаданий світ, населений виключно роботами. Як і в світі людей у них є своя соціальна ієрархія, свої герої та вигнанці. Молодий геніальний винахідник Родні мріє зробити світ роботів кращим і зустрітися зі своїм кумиром - ґуру винахідників Біґ Ботом. А ще йому дуже подобається одна молоденька робот Каппі. Але на шляху всіх його планів стоїть місцевий олігарх Біг Велд, що очолив корпорацію Біґ Бота і намагається здобути владу над всіма роботами, контролюючи випуск запчастин.

Тривалість: 01:29:47
Якість:

Відео:
кодек: H.265 (HEVC)
розмір кадру: 1920 x 1040
бітрейт: 7 290 кб/с
бітова глибина: 10 біт

Увага! Перед завантаженням переконайтесь, що ваш пристрій відтворення (та/або ПЗ) підтримує H.265 (HEVC)

Аудіо # 1:
мова: українська
переклад: двоголосий закадровий ,
кодек: AC-3 2.0
бітрейт: 192 кб/с

Аудіо # 2:
мова: англійська
переклад: оригінал
кодек: 5.1
бітрейт: 768 кб/с

Субтитри # 1: (Full)
мова: англійська
тип: програмні (м'які)
формат: *.srt


Info
Код:
General
Unique ID                                : 94714207794277348900507851755022671568 (0x47414AFB2A8915EECC40F542A2BF5ED0)
Complete name                            : Robots (2005) 1080p H.265 [UKR_ENG] [Hurtom].
Format                                   :
Format version                           : Version 4
File size                                : 5.18 GiB
Duration                                 : 1 h 29 min
Overall bit rate                         : 8 253 kb/s
Movie name                               : Роботи / Robots (2005)
Encoded date                             : UTC 2020-05-14 12:24:22
Writing application                      : v20.0.0 ('I Am The Sun') 64-bit
Writing library                          : libebml v1.3.5 + v1.4.8
Cover                                    : Yes
Attachments                              : Cover.jpg

Video
ID                                       : 1
Format                                   : HEVC
Format/Info                              : High Efficiency Video Coding
Format profile                           : Main [email protected]@High
Codec ID                                 : V_MPEGH/ISO/HEVC
Duration                                 : 1 h 29 min
Bit rate                                 : 7 290 kb/s
Width                                    : 1 920 pixels
Height                                   : 1 040 pixels
Display aspect ratio                     : 1.85:1
Frame rate mode                          : Constant
Frame rate                               : 23.976 (23976/1000) FPS
Original frame rate                      : 23.976 (24000/1001) FPS
Color space                              : YUV
Chroma subsampling                       : 4:2:0
Bit depth                                : 10 bits
Bits/(Pixel*Frame)                       : 0.152
Stream size                              : 4.57 GiB (88%)
Title                                    : Роботи / Robots (2005)
Writing library                          : x265 3.3+1-g554c887ac:[Windows][MSVC 1924][64 bit] 10bit
Encoding settings                        : cpuid=1111039 / frame-threads=3 / numa-pools=12 / wpp / no-pmode / no-pme / no-psnr / no-ssim / log-level=2 / input-csp=1 / input-res=1920x1040 / interlace=0 / total-frames=120325 / level-idc=41 / high-tier=1 / uhd-bd=0 / ref=5 / no-allow-non-conformance / no-repeat-headers / annexb / no-aud / no-hrd / info / hash=0 / no-temporal-layers / open-gop / min-keyint=23 / keyint=240 / gop-lookahead=0 / bframes=10 / b-adapt=2 / b-pyramid / bframe-bias=0 / rc-lookahead=60 / lookahead-slices=4 / scenecut=40 / hist-scenecut=0 / radl=0 / no-splice / no-intra-refresh / ctu=32 / min-cu-size=8 / rect / amp / max-tu-size=32 / tu-inter-depth=4 / tu-intra-depth=4 / limit-tu=1 / rdoq-level=2 / dynamic-rd=0.00 / no-ssim-rd / signhide / no-tskip / nr-intra=0 / nr-inter=0 / no-constrained-intra / no-strong-intra-smoothing / max-merge=4 / limit-refs=2 / limit-modes / me=3 / subme=7 / merange=57 / temporal-mvp / no-frame-dup / no-hme / weightp / weightb / no-analyze-src-pics / deblock=-3:-3 / no-sao / no-sao-non-deblock / rd=6 / selective-sao=0 / no-early-skip / no-rskip / no-fast-intra / no-tskip-fast / no-cu-lossless / no-b-intra / no-splitrd-skip / rdpenalty=0 / psy-rd=2.00 / psy-rdoq=1.00 / no-rd-refine / no-lossless / cbqpoffs=0 / crqpoffs=0 / rc=crf / crf=19.0 / qcomp=0.60 / qpstep=4 / stats-write=0 / stats-read=0 / vbv-maxrate=50000 / vbv-bufsize=50000 / vbv-init=0.9 / crf-max=0.0 / crf-min=0.0 / ipratio=1.40 / pbratio=1.30 / aq-mode=1 / aq-strength=1.00 / no-cutree / zone-count=0 / no-strict-cbr / qg-size=32 / no-rc-grain / qpmax=69 / qpmin=0 / no-const-vbv / sar=1 / overscan=0 / videoformat=5 / range=0 / colorprim=1 / transfer=1 / colormatrix=1 / chromaloc=0 / display-window=0 / cll=0,0 / min-luma=0 / max-luma=1023 / log2-max-poc-lsb=8 / vui-timing-info / vui-hrd-info / slices=1 / no-opt-qp-pps / no-opt-ref-list-length-pps / no-multi-pass-opt-rps / scenecut-bias=0.05 / hist-threshold=0.01 / no-opt-cu-delta-qp / no-aq-motion / no-hdr10 / no-hdr10-opt / no-dhdr10-opt / no-idr-recovery-sei / analysis-reuse-level=0 / analysis-save-reuse-level=0 / analysis-load-reuse-level=0 / scale-factor=0 / refine-intra=0 / refine-inter=0 / refine-mv=1 / refine-ctu-distortion=0 / no-limit-sao / ctu-info=0 / no-lowpass-dct / refine-analysis-type=0 / copy-pic=1 / max-ausize-factor=1.0 / no-dynamic-refine / no-single-sei / no-hevc-aq / no-svt / no-field / qp-adaptation-range=1.00 / no-scenecut-aware-qpconformance-window-offsets / right=0 / bottom=0
Default                                  : Yes
Forced                                   : No
Color range                              : Limited
Color primaries                          : BT.709
Transfer characteristics                 : BT.709
Matrix coefficients                      : BT.709

Audio #1
ID                                       : 2
Format                                   : AC-3
Format/Info                              : Audio Coding 3
Commercial name                          : Dolby Digital
Codec ID                                 : A_AC3
Duration                                 : 1 h 29 min
Bit rate mode                            : Constant
Bit rate                                 : 192 kb/s
Channel(s)                               : 2 channels
Channel layout                           : L R
Sampling rate                            : 48.0 kHz
Frame rate                               : 31.250 FPS (1536 SPF)
Compression mode                         : Lossy
Stream size                              : 123 MiB (2%)
Title                                    : / 2.0 Ch / 192 kbps / ДЗ / TET, 1+1
Language                                 : Ukrainian
Service kind                             : Complete Main
Default                                  : Yes
Forced                                   : Yes

Audio #2
ID                                       : 3
Format                                   :
Format/Info                              : Digital Theater Systems
Codec ID                                 : A_DTS
Duration                                 : 1 h 29 min
Bit rate mode                            : Constant
Bit rate                                 : 768 kb/s
Channel(s)                               : 6 channels
Channel layout                           : C L R Ls Rs LFE
Sampling rate                            : 48.0 kHz
Frame rate                               : 93.750 FPS (512 SPF)
Bit depth                                : 24 bits
Compression mode                         : Lossy
Stream size                              : 493 MiB (9%)
Title                                    : / 5.1 Ch / 768 kbps / Original
Language                                 : English
Default                                  : No
Forced                                   : No

Text
ID                                       : 4
Format                                   : UTF-8
Codec ID                                 : S_TEXT/UTF8
Codec ID/Info                            : UTF-8 Plain Text
Duration                                 : 1 h 22 min
Bit rate                                 : 58 b/s
Count of elements                        : 1013
Stream size                              : 35.6 KiB (0%)
Title                                    : Full
Language                                 : English
Default                                  : No
Forced                                   : No

Menu
00:00:00.000                             : :Rivet Town's Newest Arrival
00:02:03.540                             : :The Copperbottom Boy
00:04:24.138                             : :The World of Bigweld
00:07:17.311                             : :The Inventor
00:10:50.983                             : :Follow Your Dream
00:13:34.396                             : :Robot City
00:15:52.826                             : :The Crosstown Express
00:19:04.893                             : :Those Days Are Over
00:22:42.611                             : :Rodney Drops In
00:24:44.191                             : :Magnetic Personality
00:26:44.394                             : :Madame Gasket
00:29:24.512                             : :Scroungers
00:33:03.773                             : :Outmoded
00:34:58.346                             : :The Rusties
00:36:36.444                             : :Aunt Fanny's Boarding House
00:41:03.335                             : :Repairs By Rodney
00:45:55.043                             : :Going to the Bigweld Ball
00:49:53.198                             : :Troublemaker
00:53:42.344                             : :Looking for Mr. Bigweld
00:59:09.003                             : :Fender Under Fire
01:01:02.992                             : :Dad's Advice
01:04:39.875                             : :Bigweld's Back!
01:06:54.760                             : :Rodney on the Run
01:12:24.631                             : :Robot Rebellion
01:16:12.901                             : :See a Need, Fill a Need
01:19:00.235                             : :My Right-Hand Bot
01:21:24.212                             : :Get Up Offa That Thing
01:23:39.764                             : :End Titles
Світлини




Джерело: &
Особиста оцінка: 0 - не дивився


 Трекер:    Зареєстрований   

Завантажити / скачати мультфільм українською



відео для новачків



 Зареєстрований:   2020-05-14 15:21
 Розмір:   5.18 GB 
 Оцінка мультфільму:   9.8/10 (Голосів: 9)
   
Інші релізи
   Роботи / Robots (2005) AVC Ukr/Eng | Sub Eng staf777  7 / 0   2.18 GB   2018-06-03 15:56 
   Роботи / Robots (2005) Remux 1080p Ukr/Eng | Sub Eng Dr.S  1 / 0   20.32 GB   2018-04-21 15:47 
   Роботи / Robots (2005) 1080p Ukr/Eng | Sub Eng staf777  1 / 0   8.4 GB   2018-02-08 17:40 
   Роботи / Robots (2005) 720p Ukr/Eng | Sub Eng/Ger/Spa/Por igor911  5 / 0   4.14 GB   2016-05-29 15:12 
   Роботи / Robots (2005) taraskill1  12 / 0   1.29 GB   2016-05-29 07:30 
PatataFrita 
Свій


З нами з: 05.04.20
Востаннє: 09.02.21
Повідомлень: 94

2020-05-14 15:23  
Класний мультик, дякую за реліз!
bot 
робот


З нами з: 30.09.07
Востаннє: 26.05.05
Повідомлень: 27309

2020-05-14 15:24  
Тему перенесено з Фільми в HD до форуму Мультфільми в HD


-Star-Lord-

Anonymous 







2020-05-14 15:24  
PatataFrita написано:
Класний мультик, дякую за реліз!

На здоров'я Happy

Ваш часовий пояс: GMT + 2 Години

Нова тема   Відповісти