Я бачу, Я бачу / Goodnight Mommy / Ich seh, Ich seh (2014) 1080p Ger | Sub Ger/Eng/Ukr

Нові коментарі

Нова тема   Відповісти
Автор Повідомлення
Anonymous 







2020-05-14 01:48  
Я бачу, Я бачу / Goodnight Mommy / Ich seh, Ich seh (2014) 1080p Ger | Sub Ger/Eng/Ukr


Альтернативний постер:





Жанр: драма, трилер
Країна: Австрія



Кінокомпанія: Ulrich Seidl Film Produktion GmbH
Режисери та сценарісти: Вероніка Франц / Veronika Franz, Северін Фіала / Severin Fiala
Композитор: Ольга Нойвірт / Olga Neuwirth
Актори: Сюзанн Вуест / Susanne Wuest, Еліас Шварц / Elias Schwarz, Лукас Шварц / Lukas Schwarz, Ганс Ешер / Hans Escher, Ельфріде Шатц / Elfriede Schatz та інші

Сюжет:
Близнюки Еліас і Лукас не розуміють, що трапилось з мамою після пластичної операції. Вона змінила не тільки зовнішність, але й ставлення до дітей. Відчужена й холодна, вона відштовхує від себе синів і старається ізолювати сім’ю від зовнішнього світу. Хлопці починають сумніватись, що ця жінка їх мама, і намагаються з’ясувати правду.

Тривалість: 01:39:54
Якість: 1080p

Відео:
Кодек:
Розмір кадру: 1920 x 806
Бітрейт: 11,3 Мбіт/с

Аудіо:
Мова: австрійська німецька
Переклад: Оригінал
Кодек: 5.1
Бітрейт: 1509 Кбіт/с

Субтитри #1:
Мова: українська
Тип: програмні (м'які)
Формат: *.srt
Примітки: wolesj переклад з англійської

Субтитри #2:
Мова: австрійська німецька
Тип: програмні (м'які)
Формат: *.srt

Субтитри #3:
Мова: англійська
Тип: програмні (м'які)
Формат: *.srt

Info


General
Unique ID : 132062417992013605170014550160698525606 (0x635A4BE9A54BCC07FCC7A089FD6447A6)
Format :
Format version : Version 4
File size : 8.94 GiB
Duration : 1 h 39 min
Overall bit rate : 12.8 Mb/s
Movie name : Ich seh, ich seh (2014) 1080p [Ger][SubUkrGerEng] [Hurtom]
Encoded date : UTC 2020-05-13 22:41:54
Writing application : v46.0.0 ('No Deeper Escape') 64-bit
Writing library : libebml v1.3.10 + v1.5.2
Attachments : poster_ger.jpg / poster_eng.jpg

Video
ID : 1
Format : AVC
Format/Info : Advanced Video Codec
Format profile : [email protected]
Format settings : CABAC / 5 Ref Frames
Format settings, CABAC : Yes
Format settings, Reference fra : 5 frames
Codec ID : V_MPEG4/ISO/AVC
Duration : 1 h 39 min
Bit rate : 11.3 Mb/s
Width : 1 920 pixels
Height : 806 pixels
Display aspect ratio : 2.40:1
Frame rate mode : Constant
Frame rate : 23.976 (24000/1001) FPS
Color space : YUV
Chroma subsampling : 4:2:0
Bit depth : 8 bits
Scan type : Progressive
Bits/(Pixel*Frame) : 0.305
Stream size : 7.89 GiB (88%)
Title : Ich seh, ich seh (2014) 1080p
Writing library : core 148 r2692+54 69a6f49 t_mod_Custom [[email protected] X86_64]
Encoding settings : cabac=1 / ref=5 / deblock=1:-3:-3 / analyse=0x3:0x133 / me=umh / subme=10 / psy=1 / fade_compensate=0.00 / psy_rd=0.90:0.05 / mixed_ref=1 / me_range=24 / chroma_me=1 / trellis=2 / 8x8dct=1 / cqm=0 / deadzone=21,11 / fast_pskip=0 / chroma_qp_offset=-3 / threads=6 / lookahead_threads=1 / sliced_threads=0 / nr=0 / decimate=1 / interlaced=0 / bluray_compat=0 / constrained_intra=0 / fgo=0 / bframes=9 / b_pyramid=2 / b_adapt=2 / b_bias=0 / direct=3 / weightb=1 / open_gop=0 / weightp=2 / keyint=250 / keyint_min=23 / scenecut=40 / intra_refresh=0 / rc_lookahead=60 / rc=crf / mbtree=0 / crf=18.0000 / qcomp=0.60 / qpmin=0:0:0 / qpmax=69:69:69 / qpstep=4 / vbv_maxrate=62500 / vbv_bufsize=78125 / crf_max=0.0 / nal_hrd=none / filler=0 / ip_ratio=1.40 / pb_ratio=1.30 / aq=1:0.70 / aq-sensitivity=10.00 / aq-factor=1.00:1.00:1.00 / aq2=1:0.65 / aq2-sensitivity=15.00 / aq2-factor=1.00:1.00:1.00 / aq3=1:[0.60:0.60]:[0.60:0.60]:[0.60:0.60]:[0.60:0.60] / aq3-sensitivity=10.00 / aq3-factor=[1.00:1.00]:[1.00:1.00]:[1.00:1.00] / aq3-boundary=192:64:24
Language : German
Default : Yes
Forced : No
Color range : Limited
Color primaries : BT.709
Transfer characteristics : BT.709
Matrix coefficients : BT.709

Audio
ID : 2
Format :
Format/Info : Digital Theater Systems
Codec ID : A_DTS
Duration : 1 h 39 min
Bit rate mode : Constant
Bit rate : 1 509 kb/s
Channel(s) : 6 channels
Channel layout : C L R Ls Rs LFE
Sampling rate : 48.0 kHz
Frame rate : 93.750 FPS (512 SPF)
Bit depth : 24 bits
Compression mode : Lossy
Stream size : 1.05 GiB (12%)
Title : [Оригінал] 5.1 @ 1509 Кбіт/с
Language : German
Default : Yes
Forced : No

Text #1
ID : 3
Format : UTF-8
Codec ID : S_TEXT/UTF8
Codec ID/Info : UTF-8 Plain Text
Duration : 1 h 37 min
Bit rate : 22 b/s
Count of elements : 462
Stream size : 15.8 KiB (0%)
Title : Повні
Language : Ukrainian
Default : Yes
Forced : No

Text #2
ID : 4
Format : UTF-8
Codec ID : S_TEXT/UTF8
Codec ID/Info : UTF-8 Plain Text
Duration : 1 h 36 min
Bit rate : 29 b/s
Count of elements : 815
Stream size : 20.5 KiB (0%)
Title : SDH
Language : German
Default : No
Forced : No

Text #3
ID : 5
Format : UTF-8
Codec ID : S_TEXT/UTF8
Codec ID/Info : UTF-8 Plain Text
Duration : 1 h 36 min
Bit rate : 14 b/s
Count of elements : 519
Stream size : 10.0 KiB (0%)
Title : Full
Language : English
Default : No
Forced : No

Text #4
ID : 6
Format : UTF-8
Codec ID : S_TEXT/UTF8
Codec ID/Info : UTF-8 Plain Text
Duration : 1 h 36 min
Bit rate : 19 b/s
Count of elements : 745
Stream size : 13.5 KiB (0%)
Title : SDH
Language : English
Default : No
Forced : No

Menu
00:00:00.000 : en:00:00:00.000
00:06:26.094 : en:00:06:26.094
00:13:09.414 : en:00:13:09.414
00:20:08.040 : en:00:20:08.040
00:25:26.400 : en:00:25:26.400
00:31:07.824 : en:00:31:07.824
00:39:14.394 : en:00:39:14.394
00:47:45.571 : en:00:47:45.571
00:54:43.447 : en:00:54:43.447
01:01:41.656 : en:01:01:41.656
01:08:22.265 : en:01:08:22.265
01:14:53.572 : en:01:14:53.572
01:21:14.411 : en:01:21:14.411
01:29:32.284 : en:01:29:32.284
01:33:56.714 : en:01:33:56.714
01:36:41.796 : en:01:36:41.796
Скріншоти








Джерело:


Золотий реліз (завантажене не впливає на рейтинг)
 Трекер:    Зареєстрований   

Завантажити / скачати фільм українською



відео для новачків



 Зареєстрований:   2020-05-14 01:48
 Розмір:   8.94 GB 
 Оцінка фільму:   7/10 (Голосів: 3)
   
Ваш часовий пояс: GMT + 2 Години

Нова тема   Відповісти