Банкір / The Banker (2020) 1080p Eng | Sub Ukr/Eng

Нові коментарі

Нова тема   Відповісти
Автор Повідомлення
Anonymous 







2020-05-13 23:09  
Банкір / The Banker (2020) 1080p Eng | Sub Ukr/Eng


Альтернативні український та оригінальний постери:







Жанр: драма, біографічний
Країна: США



Кінокомпанія: Romulus Entertainment, Hyphenate Films, Iam21 Entertainment, Mad Hatter Films, Apple TV+
Режисер: Джордж Нолфі / George Nolfi
Сценаристи: Бред Кейн / Brad Kane, Нікеоль Леві / Нісол R. Levy, Джордж Нолфі / George Nolfi
Композитор: Х. Скотт Салінас / H. Scott Salinas
Актори: Ентоні Макі / Anthony Mackie, Семюель Л. Джексон / Samuel L. Jackson, Ніколас Голт / Nicholas Hoult, Ніа Лонг, Колм Міні, Майкл Гарні, Девід Мальдонадо та інші.

Сюжет:
Історія афроамериканських бізнес-партнерів Джо Морріса і Бернарда Ґарретта, які в 1950-х роках заснували успішне агентство нерухомості. Уникаючи расових обмежень, вони наймають підставного білого керівника компанії, а самі прикидаються простими двірником і водієм. На вершині успіху над ними нависає загроза викриття.

Рейтинг MPAA: PG-13 - дітям до 13 років перегляд не бажаний
Вікова категорія: 12+

Тривалість: 02:00:25
Якість: 1080p

Відео:
Кодек:
Розмір кадру: 1918 x 802
Бітрейт: 10.1 Мбіт/с

Аудіо:
Мова: англійська
Переклад: Оригінал
Кодек: E- JOC 5.1
Бітрейт: 768 Кбіт/с

Субтитри #1:
Мова: українська | Повні | (посилання на OpenSubtitles)

Тип: програмні (м'які)
Формат: *.srt
Переклад: офіційний, Олена Цехмейструк

Субтитри #2-3:
Мова: англійська | Повні, SDH
Тип: програмні (м'які)
Формат: *.srt

Info


General
Unique ID : 83417512697847433330952725561353083963 (0x3EC1A0E93FEF6771893E1022576A9C3B)
Format :
Format version : Version 4
File size : 9.11 GiB
Duration : 2 h 0 min
Overall bit rate : 10.8 Mb/s
Movie name : The Banker (2020) h264 1080p [Eng][SubUkrEng] [Hurtom]
Encoded date : UTC 2020-05-13 20:42:21
Writing application : v46.0.0 ('No Deeper Escape') 64-bit
Writing library : libebml v1.3.10 + v1.5.2
Attachments : poster_ukr1.jpg / poster_ukr2.jpg / poster_eng.jpg

Video
ID : 1
Format : AVC
Format/Info : Advanced Video Codec
Format profile : [email protected]
Format settings : CABAC / 5 Ref Frames
Format settings, CABAC : Yes
Format settings, Reference fra : 5 frames
Codec ID : V_MPEG4/ISO/AVC
Duration : 2 h 0 min
Bit rate : 10.1 Mb/s
Width : 1 918 pixels
Height : 802 pixels
Display aspect ratio : 2.40:1
Frame rate mode : Constant
Frame rate : 23.976 (24000/1001) FPS
Color space : YUV
Chroma subsampling : 4:2:0
Bit depth : 8 bits
Scan type : Progressive
Bits/(Pixel*Frame) : 0.273
Stream size : 8.46 GiB (93%)
Title : The Banker (2020) h264 1080p
Default : Yes
Forced : No
Color range : Limited
Color primaries : BT.709
Transfer characteristics : BT.709
Matrix coefficients : BT.709

Audio
ID : 2
Format : E-AC-3 JOC
Format/Info : Enhanced AC-3 with Joint Object Coding
Commercial name : Dolby Digital Plus with Dolby Atmos
Codec ID : A_EAC3
Duration : 2 h 0 min
Bit rate mode : Constant
Bit rate : 768 kb/s
Channel(s) : 6 channels
Channel layout : L R C LFE Ls Rs
Sampling rate : 48.0 kHz
Frame rate : 31.250 FPS (1536 SPF)
Compression mode : Lossy
Stream size : 662 MiB (7%)
Title : [Оригінал] EAC3 5.1 @ 768 Кбіт/с
Language : English
Service kind : Complete Main
Default : Yes
Forced : No
Complexity index : 16
Number of dynamic objects : 15
Bed channel count : 1 channel
Bed channel configuration : LFE

Text #1
ID : 3
Format : UTF-8
Codec ID : S_TEXT/UTF8
Codec ID/Info : UTF-8 Plain Text
Duration : 2 h 0 min
Bit rate : 105 b/s
Count of elements : 1834
Stream size : 93.2 KiB (0%)
Title : Повні
Language : Ukrainian
Default : Yes
Forced : No

Text #2
ID : 4
Format : UTF-8
Codec ID : S_TEXT/UTF8
Codec ID/Info : UTF-8 Plain Text
Duration : 1 h 53 min
Bit rate : 74 b/s
Count of elements : 1751
Stream size : 61.5 KiB (0%)
Title : Full
Language : English
Default : No
Forced : No

Text #3
ID : 5
Format : UTF-8
Codec ID : S_TEXT/UTF8
Codec ID/Info : UTF-8 Plain Text
Duration : 1 h 56 min
Bit rate : 75 b/s
Count of elements : 1848
Stream size : 64.4 KiB (0%)
Title : [SDH]
Language : English
Default : No
Forced : No
Скріншоти










Українізацію постера - DanyZemlyanoy

Джерело: &


 Трекер:    Зареєстрований   

Завантажити / скачати фільм українською



відео для новачків



 Зареєстрований:   2020-05-13 23:09
 Розмір:   9.11 GB 
 Оцінка фільму:   8.9/10 (Голосів: 10)
   
Інші релізи
   Банкір / The Banker (2020) 720p Eng | sub Ukr/Eng igor911  59 / 0   2.75 GB   2020-03-22 23:55 
ukrnet 
Свій


З нами з: 03.01.14
Востаннє: 02.12.20
Повідомлень: 105

2020-08-04 22:47  
буде озвучка, чи як завжди?
Ваш часовий пояс: GMT + 2 Години

Нова тема   Відповісти