Поза Грою / Шлях Назад / The Way Back (2020) Remux 1080p 2xUkr/Eng | Sub Eng

Нові коментарі

Нова тема   Відповісти
Автор Повідомлення
MakRA 
VIP


З нами з: 10.11.18
Востаннє: 27.10.20
Повідомлень: 1156

2020-05-13 21:27  
Поза Грою / Шлях Назад / The Way Back (2020) Remux 1080p 2xUkr/Eng | Sub Eng

Поза Грою / Шлях Назад / The Way Back (2020) Remux 1080p 2xUkr/Eng | Sub Eng

Альтернативний український постер:

Жанр: драма, спорт
Країна: США



Кінокомпанія: Warner Bros., PictSpyglass Media Group, BRON Studios, Mayhem Pictures Pearl Street Films
Режисер: Ґевін О'Коннор [Gavin O'Connor]
Актори: Бен Афлек [Ben Affleck], Ел Мадріґаль [Al Madrigal], Яніна Ґаванкар [Janina Gavankar], Мішель Воткінс [Michaela Watkins], Брендон Вілсон [Brandon Wilson], Джеремі Радін [Jeremy Radin], Меттью Глейв [Matthew Glave]

Сюжет:
Джек Каннінґем пережив трагічну втрату, тепер він на дні життя. Йому пропонують стати тренером місцевої шкільної команди аутсайдерів з баскетболу, за яку Джек сам колись грав. Нове заняття допомагає йому знайти сенс життя, та надає шанс перемогти внутрішніх демонів, та пробачити сoбі за помилки минулого.


Тривалість: 01:48:26
Якість: Remux 1080p
Відео:
кодек:
розмір кадру: 1920 х 1080
бітрейт: 33,3 Mб/с

Аудіо # 1:
мова: українська
переклад: багатоголосий закадровий
кодек: 2.0
бітрейт: 192 кб/с

Аудіо # 2:
мова: українська
переклад: двоголосий закадровий | Людмила Швець та Burton Jey
кодек: 5.1
бітрейт: 384 кб/с

Аудіо # 3:
мова: англійська
переклад: оригінал
кодек: -HD MA 5.1
бітрейт: 4172 кб/с

Аудіо # 4:
мова: англійська
переклад: оригінал
кодек: 5.1
бітрейт: 448 кб/с

Субтитри # 1-2: (Full) | (SDH)
мова: англійська
тип: програмні (м'які)
формат: *.srt

Збережено оригінальні розділи, як на Blu-ray.
Info
General
Unique ID : 70960207181700602941406113418211389444 (0x356270545A38DBBB61174CCA61D67004)
Complete name : I:\+ Фільми в HD\спорт, драма\The Way Back (2020) Remux 1080p 2xUkrEng Sub Eng [Hurtom].
Format :
Format version : Version 4
File size : 29.2 GiB
Duration : 1 h 48 min
Overall bit rate mode : Variable
Overall bit rate : 38.5 Mb/s
Movie name : Поза Грою / Шлях Назад / The Way Back (2020) Remux 1080p 2xUkr/Eng | Sub Eng [Hurtom]
Encoded date : UTC 2020-10-15 22:13:01
Writing application : v51.0.0 ('I Wish') 64-bit
Writing library : libebml v1.4.0 + v1.6.2
Cover : Yes
Attachments : cover.jpg / cover.jpg

Video
ID : 1
Format : AVC
Format/Info : Advanced Video Codec
Format profile : [email protected]
Format settings : CABAC / 4 Ref Frames
Format settings, CABAC : Yes
Format settings, Reference fra : 4 frames
Codec ID : V_MPEG4/ISO/AVC
Duration : 1 h 48 min
Bit rate mode : Variable
Bit rate : 33.3 Mb/s
Maximum bit rate : 37.0 Mb/s
Width : 1 920 pixels
Height : 1 080 pixels
Display aspect ratio : 16:9
Frame rate mode : Constant
Frame rate : 23.976 (24000/1001) FPS
Color space : YUV
Chroma subsampling : 4:2:0
Bit depth : 8 bits
Scan type : Progressive
Bits/(Pixel*Frame) : 0.670
Stream size : 25.2 GiB (86%)
Title : The Way Back (2020) Remux 1080p 2xUkr/Eng | Sub Eng [Hurtom]
Language : Ukrainian
Default : Yes
Forced : Yes

Audio #1
ID : 2
Format : AC-3
Format/Info : Audio Coding 3
Commercial name : Dolby Digital
Codec ID : A_AC3
Duration : 1 h 48 min
Bit rate mode : Constant
Bit rate : 192 kb/s
Channel(s) : 2 channels
Channel layout : L R
Sampling rate : 48.0 kHz
Frame rate : 31.250 FPS (1536 SPF)
Compression mode : Lossy
Stream size : 149 MiB (0%)
Title : MVO [UKR] 2.0
Language : Ukrainian
Service kind : Complete Main
Default : Yes
Forced : Yes

Audio #2
ID : 3
Format : AC-3
Format/Info : Audio Coding 3
Commercial name : Dolby Digital
Codec ID : A_AC3
Duration : 1 h 48 min
Bit rate mode : Constant
Bit rate : 384 kb/s
Channel(s) : 6 channels
Channel layout : L R C LFE Ls Rs
Sampling rate : 48.0 kHz
Frame rate : 31.250 FPS (1536 SPF)
Compression mode : Lossy
Delay relative to video : 1 s 700 ms
Stream size : 298 MiB (1%)
Title : DVO [UKR] 5.1 | Людмила Швець та Burton Jey
Language : Ukrainian
Service kind : Complete Main
Default : No
Forced : No

Audio #3
ID : 4
Format : XLL
Format/Info : Digital Theater Systems
Commercial name : -HD Master Audio
Codec ID : A_DTS
Duration : 1 h 48 min
Bit rate mode : Variable
Bit rate : 4 172 kb/s
Channel(s) : 8 channels
Channel layout : C L R LFE Lb Rb Lss Rss
Sampling rate : 48.0 kHz
Frame rate : 93.750 FPS (512 SPF)
Bit depth : 24 bits
Compression mode : Lossless
Stream size : 3.16 GiB (11%)
Title : Original -HD MA 7.1
Language : English
Default : No
Forced : No

Audio #4
ID : 5
Format : AC-3
Format/Info : Audio Coding 3
Commercial name : Dolby Digital
Codec ID : A_AC3
Duration : 1 h 48 min
Bit rate mode : Constant
Bit rate : 448 kb/s
Channel(s) : 6 channels
Channel layout : L R C LFE Ls Rs
Sampling rate : 48.0 kHz
Frame rate : 31.250 FPS (1536 SPF)
Compression mode : Lossy
Stream size : 347 MiB (1%)
Title : Original 5.1
Language : English
Service kind : Complete Main
Default : No
Forced : No

Text #1
ID : 6
Format : UTF-8
Codec ID : S_TEXT/UTF8
Codec ID/Info : UTF-8 Plain Text
Duration : 1 h 39 min
Bit rate : 68 b/s
Count of elements : 1713
Stream size : 50.0 KiB (0%)
Title : Eng (Full) SRT
Language : English
Default : No
Forced : No

Text #2
ID : 7
Format : UTF-8
Codec ID : S_TEXT/UTF8
Codec ID/Info : UTF-8 Plain Text
Duration : 1 h 40 min
Bit rate : 77 b/s
Count of elements : 1855
Stream size : 57.1 KiB (0%)
Title : Eng (SDH) SRT
Language : English
Default : No
Forced : No

Menu
00:00:00.000 : en:Chapter 1
00:09:40.371 : en:Chapter 2
00:15:53.786 : en:Chapter 3
00:24:44.816 : en:Chapter 4
00:31:35.101 : en:Chapter 5
00:37:54.897 : en:Chapter 6
00:45:01.073 : en:Chapter 7
00:54:15.418 : en:Chapter 8
01:04:14.851 : en:Chapter 9
01:09:06.142 : en:Chapter 10
01:17:57.464 : en:Chapter 11
01:27:57.188 : en:Chapter 12
01:33:17.508 : en:Chapter 13
01:42:39.403 : en:Chapter 14
Скріншоти
Джерело: &
Подяка за озвучення п. Burton Jey та Людмилі Швець. Локалізація постера п. mrgalser
За доріжку з професійним озвученням подяка п. Arsenfpu
Особиста оцінка: не дивився



Авторський реліз (завантажувати можна без реєстрації)
 Трекер:    Зареєстрований   

Завантажити / скачати фільм українською



відео для новачків



 Зареєстрований:   2020-10-16 00:53
 Розмір:   29.16 GB 
 Оцінка фільму:   9.2/10 (Голосів: 13)
   
kuts-vv 
VIP


З нами з: 11.12.11
Востаннє: 26.10.20
Повідомлень: 329

2020-05-14 23:04  
Толковий фільм
MakRA 
VIP


З нами з: 10.11.18
Востаннє: 27.10.20
Повідомлень: 1156

2020-10-16 00:54  
Реліз оновлено 16.10.2020
Додано професійне багатоголосе озвучення

Ваш часовий пояс: GMT + 2 Години

Нова тема   Відповісти