Під водою / Underwater (2020) Remux 1080p Ukr/Eng | Sub Ukr/Eng

Нові коментарі

Нова тема   Відповісти
Автор Повідомлення
Anonymous 







2020-05-13 21:00  
Під водою / Underwater (2020) Remux 1080p Ukr/Eng | Sub Ukr/Eng



Альтернативні постери


«На глибині 11 км під поверхнею океану щось пробудилося»



Жанр: бойовик, жахи
Країна: США



Кінокомпанія: 20th Century Fox Film Corporation, Chernin Entertainment, TSG Entertainment
Режисер: Уільям Юбенк
Актори: Крістен Стюарт, Венсан Кассель, ТіДжей Міллер, Джессіка Хенвік, Джон Галлахер мол., Мамуду Аті, Ганнер Райт, Аманда Труп

Сюжет:
Екіпаж підводних дослідників повинен дістатися до безпечного місця після землетрусу, що руйнує їх підземну лабораторію.


Тривалість: 01:34:58
Якість: Remux 1080p

Відео:
кодек:
розмір кадру: 1920x1080
бітрейт: ~ 26.4 Mб/с

Аудіо # 1:
мова: українська
переклад: професійний дубльований
кодек: 2.0
бітрейт: 192 кб/с

Аудіо # 2:
мова: англійська
переклад: оригінал
кодек: 5.1
бітрейт: 448 кб/с

Аудіо # 3:
мова: англійська
переклад: оригінал
кодек: -HD MA 7.1
бітрейт: 5157 кб/с

Аудіо # 4:
мова: англійська
переклад: коментарі
кодек: 2.0
бітрейт: 192 кб/с

Субтитри # 1: (Full)
мова: українська
тип: програмні (м'які)
формат: *.srt

Субтитри # 2 - 3: (Full, SDH)
мова: англійська
тип: програмні (м'які)
формат: *.srt
Info
Код:
General
Complete name                            : Underwater (2020) Remux 1080p [ukr, eng] [Hurtom].
Format                                   :
Format version                           : Version 4
File size                                : 21.5 GiB
Duration                                 : 1 h 34 min
Overall bit rate mode                    : Variable
Overall bit rate                         : 32.4 Mb/s
Movie name                               : Під водою / Underwater (2020)
Encoded date                             : UTC 2020-05-13 18:23:29
Writing application                      : v30.1.0 ('Forever And More') 64-bit
Writing library                          : libebml v1.3.6 + v1.4.9
Cover                                    : Yes
Attachments                              : cover.jpg

Video
ID                                       : 1
Format                                   : AVC
Format/Info                              : Advanced Video Codec
Format profile                           : [email protected]
Format settings                          : CABAC / 2 Ref Frames
Format settings, CABAC                   : Yes
Format settings, RefFrames               : 2 frames
Codec ID                                 : V_MPEG4/ISO/AVC
Duration                                 : 1 h 34 min
Bit rate mode                            : Variable
Bit rate                                 : 26.4 Mb/s
Width                                    : 1 920 pixels
Height                                   : 1 080 pixels
Display aspect ratio                     : 16:9
Frame rate mode                          : Constant
Frame rate                               : 23.976 (24000/1001) FPS
Color space                              : YUV
Chroma subsampling                       : 4:2:0
Bit depth                                : 8 bits
Scan type                                : Progressive
Bits/(Pixel*Frame)                       : 0.531
Stream size                              : 17.5 GiB (81%)
Default                                  : Yes
Forced                                   : No

Audio #1
ID                                       : 2
Format                                   : AC-3
Format/Info                              : Audio Coding 3
Commercial name                          : Dolby Digital
Codec ID                                 : A_AC3
Duration                                 : 1 h 34 min
Bit rate mode                            : Constant
Bit rate                                 : 192 kb/s
Channel(s)                               : 2 channels
Channel layout                           : L R
Sampling rate                            : 48.0 kHz
Frame rate                               : 31.250 FPS (1536 SPF)
Bit depth                                : 16 bits
Compression mode                         : Lossy
Stream size                              : 130 MiB (1%)
Title                                    : 2.0 | 192
Language                                 : Ukrainian
Service kind                             : Complete Main
Default                                  : Yes
Forced                                   : No

Audio #2
ID                                       : 3
Format                                   : AC-3
Format/Info                              : Audio Coding 3
Commercial name                          : Dolby Digital
Codec ID                                 : A_AC3
Duration                                 : 1 h 34 min
Bit rate mode                            : Constant
Bit rate                                 : 448 kb/s
Channel(s)                               : 6 channels
Channel layout                           : L R C LFE Ls Rs
Sampling rate                            : 48.0 kHz
Frame rate                               : 31.250 FPS (1536 SPF)
Bit depth                                : 16 bits
Compression mode                         : Lossy
Stream size                              : 304 MiB (1%)
Title                                    : 5.1 | 448
Language                                 : English
Service kind                             : Complete Main
Default                                  : No
Forced                                   : No

Audio #3
ID                                       : 4
Format                                   : XLL
Format/Info                              : Digital Theater Systems
Commercial name                          : -HD Master Audio
Codec ID                                 : A_DTS
Duration                                 : 1 h 34 min
Bit rate mode                            : Variable
Bit rate                                 : 5 157 kb/s
Channel(s)                               : 8 channels
Channel layout                           : C L R LFE Lb Rb Lss Rss
Sampling rate                            : 48.0 kHz
Frame rate                               : 93.750 FPS (512 SPF)
Bit depth                                : 24 bits
Compression mode                         : Lossless
Stream size                              : 3.42 GiB (16%)
Title                                    : -HD MA 7.1 | 5157
Language                                 : English
Default                                  : No
Forced                                   : No

Audio #4
ID                                       : 5
Format                                   : AC-3
Format/Info                              : Audio Coding 3
Commercial name                          : Dolby Digital
Codec ID                                 : A_AC3
Duration                                 : 1 h 34 min
Bit rate mode                            : Constant
Bit rate                                 : 224 kb/s
Channel(s)                               : 2 channels
Channel layout                           : L R
Sampling rate                            : 48.0 kHz
Frame rate                               : 31.250 FPS (1536 SPF)
Bit depth                                : 16 bits
Compression mode                         : Lossy
Delay relative to video                  : 29 ms
Stream size                              : 152 MiB (1%)
Title                                    : Commentary
Language                                 : English
Service kind                             : Complete Main
Default                                  : No
Forced                                   : No

Text #1
ID                                       : 6
Format                                   : UTF-8
Codec ID                                 : S_TEXT/UTF8
Codec ID/Info                            : UTF-8 Plain Text
Duration                                 : 1 h 33 min
Bit rate                                 : 68 b/s
Count of elements                        : 1145
Stream size                              : 47.1 KiB (0%)
Title                                    : Full
Language                                 : Ukrainian
Default                                  : No
Forced                                   : No

Text #2
ID                                       : 7
Format                                   : UTF-8
Codec ID                                 : S_TEXT/UTF8
Codec ID/Info                            : UTF-8 Plain Text
Duration                                 : 1 h 30 min
Bit rate                                 : 52 b/s
Count of elements                        : 1182
Stream size                              : 34.4 KiB (0%)
Title                                    : Full
Language                                 : English
Default                                  : Yes
Forced                                   : No

Text #3
ID                                       : 8
Format                                   : UTF-8
Codec ID                                 : S_TEXT/UTF8
Codec ID/Info                            : UTF-8 Plain Text
Duration                                 : 1 h 32 min
Bit rate                                 : 60 b/s
Count of elements                        : 1387
Stream size                              : 40.7 KiB (0%)
Title                                    : SDH
Language                                 : English
Default                                  : No
Forced                                   : No
Скріншоти


Джерело:
Особиста оцінка: 2 - заснув
Подяка п.sub.Trader за укр. субтитри.


Золотий реліз (завантажене не впливає на рейтинг)
 Трекер:    Зареєстрований   

Завантажити / скачати фільм українською



відео для новачків



 Зареєстрований:   2020-05-13 21:35
 Розмір:   21.5 GB 
 Оцінка фільму:   8.3/10 (Голосів: 15)
   
Інші релізи
   Під водою / Underwater (2020) 1080p H.265 Ukr/Eng | Sub Ukr/Eng -Star-Lord-  21 / 1   4.59 GB   2020-05-14 16:23 
   Під водою / Underwater (2020) 1080p Ukr/Eng | Sub Ukr/Eng staf777  19 / 1   7.19 GB   2020-05-13 22:26 
   Під водою / Underwater (2020) antik_2008  37 / 0   1.29 GB   2020-05-13 22:25 
   Під водою / Underwater (2020) 720p Ukr/Eng | Sub Ukr/Eng igor911  23 / 0   3.57 GB   2020-05-13 21:17 
   Під водою / Underwater (2020) AVC Ukr/Eng | Sub Eng 11FrYkT  40 / 0   2.01 GB   2020-05-13 18:47 
tolya2 
Новенький


З нами з: 21.07.17
Востаннє: 02.06.20
Повідомлень: 1

2020-05-15 09:01  
Цей фільм не для людей зі слабким зором,суцільна темрява.
Sando7 
Відео Гуртом - запис з ТБ
Відео Гуртом - запис з ТБ


З нами з: 04.05.09
Востаннє: 01.06.20
Повідомлень: 1544

2020-05-15 09:37  
tolya2 написано:
Цей фільм не для людей зі слабким зором,суцільна темрява.

Я на 55 дюймах переглядав, все шикарно видно. А фільм норм, звісно далеко до шедевра але для любителів фантастики з жахастиками піде. Як мінімум раз глянути можна

slyder30 
Новенький


З нами з: 23.12.17
Востаннє: 23.05.20
Повідомлень: 4

2020-05-16 20:21  
Як на мене - слабенько. Атмосфера передана добре, а от з іншим - біда. Про Крістен не буду згадувати, про неї багато різних думок, для Касселя - цей фільм не його рівень. Сюжет ну дуже примітивний, схоже, що сценарій - витвір мистецтва Грети, якраз її тема. Знято загалом добре, але всього на раз подивитися.
Ваш часовий пояс: GMT + 2 Години

Нова тема   Відповісти