Вероніка Марс (Сезон 4) / Veronica Mars (Season 4) (2019)

Нові коментарі

Нова тема   Відповісти
Автор Повідомлення
DniproFilm 
VIP


З нами з: 10.10.18
Востаннє: 25.09.20
Повідомлень: 432

2020-05-12 19:56  
Вероніка Марс (Сезон 4) / Veronica Mars (Season 4) (2019)

Вероніка Марс (Сезон 4) / Veronica Mars (Season 4) (2019)


Жанр: детектив, кримінал, драма
Країна: США



Кінокомпанія / телеканал: Broadway Video, Studio T

Режисер: Джон Т. Кречмер, Марк Пізнарскі, Роб Томас та iншi
Актори/ролі озвучують: Крістен Белл, Персі Дагс III, Джейсон Дорінг, Френсіс Капра, Енріко Колантоні, Райан Генсен, Тедді Дан, Майкл Манні, Тіна Маджоріно та iншi

Сюжет:
Чертвертий сезон розповість нам про загадкові вбиства школярів у містечку Нептун, які сталися протягом весняних канікул. Батьки однієї з жертв звертаються до детективного агенства Mars Investigations, тож на Вероніку чекають нові розслідування.


Тривалість: 1 серія: ~ 50 хв. (цілком серій: 8)
Перелік серій

01. Spring Break Forever
02. Chino and the Man
03. Keep Calm and Party On
04. Heads You Lose
05. Losing Streak
06. Entering a World of Pain
07. Gods of War
08. Years, Continents, Bloodshed
Якість:
Відео:
кодек:
розмір кадру: 720x400
бітрейт: ~1800 кб/с

Аудіо # 1:
мова: українська
переклад: багатоголосий закадровий
кодек: 5.1
бітрейт: 384 кб/с

Джерело озвучення:
DniproFilm

Реліз оновлено.
Info

Video
ID : 0
Format : MPEG-4 Visual
Format profile : Advanced [email protected]
Format settings : BVOP2
Format settings, BVOP : 2
Format settings, QPel : No
Format settings, GMC : No warppoints
Format settings, Matrix : Default (H.263)
Muxing mode : Packed bitstream
Codec ID :
Codec ID/Hint :
Duration : 48 min 33 s
Bit rate : 1 758 kb/s
Width : 720 pixels
Height : 400 pixels
Display aspect ratio : 16:9
Frame rate : 23.976 (24000/1001) FPS
Color space : YUV
Chroma subsampling : 4:2:0
Bit depth : 8 bits
Scan type : Progressive
Compression mode : Lossy
Bits/(Pixel*Frame) : 0.255
Stream size : 611 MiB (82%)
Writing library : 69

Audio
ID : 1
Format : AC-3
Format/Info : Audio Coding 3
Commercial name : Dolby Digital
Codec ID : 2000
Duration : 48 min 33 s
Bit rate mode : Constant
Bit rate : 384 kb/s
Channel(s) : 6 channels
Channel layout : L R C LFE Ls Rs
Sampling rate : 48.0 kHz
Frame rate : 31.250 FPS (1536 SPF)
Compression mode : Lossy
Stream size : 133 MiB (18%)
Alignment : Aligned on interleaves
Interleave, duration : 42 ms (1.00 video frame)
Interleave, preload duratio : 512 ms
Service kind : Complete Main
Скріншоти




Авторський реліз (завантажувати можна без реєстрації)
 Трекер:    Зареєстрований   

Завантажити / скачати серіал українською



відео для новачків



 Зареєстрований:   2020-05-16 17:40
 Розмір:   6.2 GB 
 Оцінка серіалу:   9.9/10 (Голосів: 9)
   
DniproFilm 
VIP


З нами з: 10.10.18
Востаннє: 25.09.20
Повідомлень: 432

2020-05-15 00:19  
Додано 4-6 серії.

DniproFilm 
VIP


З нами з: 10.10.18
Востаннє: 25.09.20
Повідомлень: 432

2020-05-15 22:03  
Додано 7 серію.

DniproFilm 
VIP


З нами з: 10.10.18
Востаннє: 25.09.20
Повідомлень: 432

2020-05-16 17:41  
Додано 8 серію (фінал).

don pedro 
Попереджень: 1
Попереджень: 1 


З нами з: 29.06.11
Востаннє: 27.09.20
Повідомлень: 17775

2020-05-17 02:17  
Вперше у "Вероніці Марс" бачу якісний сценарій. І немає безглуздо великої кількості серій. Втім, Вероніка тут занадто тупа і надто нахабна (навіть, як для неї).
don pedro 
Попереджень: 1
Попереджень: 1 


З нами з: 29.06.11
Востаннє: 27.09.20
Повідомлень: 17775

2020-05-18 01:47  
Дивовижно життєве закінчення. Особливо як для серіалу, який починався як історія школярки-детектива. Не менш дивовижно, що цей коротенький сезон кращий, аніж усі попередні. Четвертий сезон, мабуть, останній. Це цілком відповідає закінченню восьмої серії, але хто його знає, може продюсери ще це все оживлять. Чудо вже те, що його взагалі знімали.
Вероніка, нарешті, подорослішала, і залишила Нептун за спиною. Найбільше мені у цьому сезоні сподобались, як не дивно, два мексиканські найманці, які полюбили Америку. Окреме захоплення Крістен Белл, яка майже у 40 та з двома дітьми виглядає на років десять молодшою. Зрештою, так було і раніше, адже вона почала грати школярку Вероніку у 2004 р., коли їй було вже 24. Мабуть, це тому, що вона маленького зросту.
Хороше озвучення.

fl_fl 
Відео Гуртом - фільмокрай
Відео Гуртом - фільмокрай


З нами з: 26.05.09
Востаннє: 28.09.20
Повідомлень: 3311

2020-05-18 07:33  
А ще ж якихось 5 років тому був фільм https://toloka.to/t103950
don pedro 
Попереджень: 1
Попереджень: 1 


З нами з: 29.06.11
Востаннє: 27.09.20
Повідомлень: 17775

2020-05-18 16:05  
fl_fl
Пам'ятаю, але він настільки сіренький, що я пригадую тільки про його існування, і все.

leicheman 
Відео Гуртом - фільмокрай
Відео Гуртом - фільмокрай


З нами з: 03.07.14
Востаннє: 27.09.20
Повідомлень: 5430

2020-05-18 16:09  
don pedro написано:
Пам'ятаю, але він настільки сіренький, що я пригадую тільки про його існування, і все.


наскільки я чув, що на його зйомки скидалися фани серіалу і тому вийшло посередньо

don pedro 
Попереджень: 1
Попереджень: 1 


З нами з: 29.06.11
Востаннє: 27.09.20
Повідомлень: 17775

2020-05-18 16:15  
leicheman
Так, і його навіть озвучили для "Гуртом".

[Captain] 
Попереджень: 1
Попереджень: 1 


З нами з: 19.02.12
Востаннє: 28.09.20
Повідомлень: 2330

2020-05-19 11:55  
Тепер для повної українізації Вероніки залишається лише две тоненькі книжки перекласти.
vavlap 
Свій


З нами з: 24.01.15
Востаннє: 27.09.20
Повідомлень: 129

2020-09-02 08:43  
Депресивненький сезон на відміну від перших трьох. Ніби як ілюстрація наскільки люди в зрілому віці відрізняються від життєрадісних підлітків.

Додано через 1 хвилину 53 секунди:

don pedro написано:
Окреме захоплення Крістен Белл, яка майже у 40 та з двома дітьми виглядає на років десять молодшою.

Я думав їй тут 50.

Ваш часовий пояс: GMT + 2 Години

Нова тема   Відповісти