Вероніка Марс (Сезон 4) / Veronica Mars (Season 4) (2019) 720p Ukr/Eng

Нові коментарі

Нова тема   Відповісти
Останній раз роздавалося Dreams199130 (2020-11-28)
Автор Повідомлення
DniproFilm 
VIP


З нами з: 10.10.18
Востаннє: 29.11.20
Повідомлень: 443

2020-05-12 18:56  
Вероніка Марс (Сезон 4) / Veronica Mars (Season 4) (2019) 720p Ukr/Eng

Вероніка Марс (Сезон 4) / Veronica Mars (Season 4) (2019) 720p Ukr/Eng


Жанр: детектив, кримінал, драма
Країна: США



Кінокомпанія / телеканал: Broadway Video, Studio T

Режисер: Джон Т. Кречмер, Марк Пізнарскі, Роб Томас та iншi
Актори/ролі озвучують: Крістен Белл, Персі Дагс III, Джейсон Дорінг, Френсіс Капра, Енріко Колантоні, Райан Генсен, Тедді Дан, Майкл Манні, Тіна Маджоріно та iншi

Сюжет:
Чертвертий сезон розповість нам про загадкові вбиства школярів у містечку Нептун, які сталися протягом весняних канікул. Батьки однієї з жертв звертаються до детективного агенства Mars Investigations, тож на Вероніку чекають нові розслідування.


Тривалість: 1 серія: ~ 50 хв. (цілком серій: 8)
Перелік серій

01. Spring Break Forever
02. Chino and the Man
03. Keep Calm and Party On
04. Heads You Lose
05. Losing Streak
06. Entering a World of Pain
07. Gods of War
08. Years, Continents, Bloodshed
Якість:
Відео:
кодек:
розмір кадру: 1280x720
бітрейт: ~4000 кб/с

Аудіо # 1:
мова: українська
переклад: багатоголосий закадровий
кодек: 5.1
бітрейт: 384 кб/с

Аудіо # 2:
мова: англійська
переклад: оригінал
кодек: 5.1
бітрейт: 640 кб/с

Джерело озвучення:
DniproFilm

Реліз оновлено.
Info

Video
ID : 1
Format : AVC
Format/Info : Advanced Video Codec
Format profile : [email protected]
Format settings : CABAC / 4 Ref Frames
Format settings, CABAC : Yes
Format settings, Reference : 4 frames
Codec ID : V_MPEG4/ISO/AVC
Duration : 48 min 33 s
Bit rate : 3 921 kb/s
Width : 1 280 pixels
Height : 720 pixels
Display aspect ratio : 16:9
Frame rate mode : Constant
Frame rate : 23.976 (24000/1001) FPS
Color space : YUV
Chroma subsampling : 4:2:0
Bit depth : 8 bits
Scan type : Progressive
Bits/(Pixel*Frame) : 0.177
Stream size : 1.33 GiB (79%)
Language : English
Default : Yes
Forced : No
Color range : Limited
Color primaries : BT.709
Transfer characteristics : BT.709
Matrix coefficients : BT.709

Audio #1
ID : 2
Format : AC-3
Format/Info : Audio Coding 3
Commercial name : Dolby Digital
Codec ID : A_AC3
Duration : 48 min 33 s
Bit rate mode : Constant
Bit rate : 384 kb/s
Channel(s) : 6 channels
Channel layout : L R C LFE Ls Rs
Sampling rate : 48.0 kHz
Frame rate : 31.250 FPS (1536 SPF)
Compression mode : Lossy
Stream size : 133 MiB (8%)
Title : DniproFilm
Language : Ukrainian
Service kind : Complete Main
Default : Yes
Forced : No

Audio #2
ID : 3
Format : AC-3
Format/Info : Audio Coding 3
Commercial name : Dolby Digital
Codec ID : A_AC3
Duration : 48 min 33 s
Bit rate mode : Constant
Bit rate : 640 kb/s
Channel(s) : 6 channels
Channel layout : L R C LFE Ls Rs
Sampling rate : 48.0 kHz
Frame rate : 31.250 FPS (1536 SPF)
Compression mode : Lossy
Stream size : 222 MiB (13%)
Language : English
Service kind : Complete Main
Default : No
Forced : No
Скріншоти




Авторський реліз (завантажувати можна без реєстрації)
 Трекер:    Зареєстрований   

Завантажити / скачати серіал українською



відео для новачків



 Зареєстрований:   2020-05-16 16:40
 Розмір:   14.19 GB 
 Оцінка серіалу:   10/10 (Голосів: 3)
   
DniproFilm 
VIP


З нами з: 10.10.18
Востаннє: 29.11.20
Повідомлень: 443

2020-05-16 16:41  
Оновлено. Додано 8 серію (фінал).

Ваш часовий пояс: GMT + 2 Години

Нова тема   Відповісти