Вероніка Марс (Сезон 4) / Veronica Mars (Season 4) (2019) 1080p Ukr/Eng

Нові коментарі

Нова тема   Відповісти
Автор Повідомлення
DniproFilm 
VIP


З нами з: 10.10.18
Востаннє: 04.12.20
Повідомлень: 446

2020-05-12 18:56  
Вероніка Марс (Сезон 4) / Veronica Mars (Season 4) (2019) 1080p Ukr/Eng

Вероніка Марс (Сезон 4) / Veronica Mars (Season 4) (2019) 1080p Ukr/Eng


Жанр: детектив, кримінал, драма
Країна: США



Кінокомпанія / телеканал: Broadway Video, Studio T

Режисер: Джон Т. Кречмер, Марк Пізнарскі, Роб Томас та iншi
Актори/ролі озвучують: Крістен Белл, Персі Дагс III, Джейсон Дорінг, Френсіс Капра, Енріко Колантоні, Райан Генсен, Тедді Дан, Майкл Манні, Тіна Маджоріно та iншi

Сюжет:
Чертвертий сезон розповість нам про загадкові вбиства школярів у містечку Нептун, які сталися протягом весняних канікул. Батьки однієї з жертв звертаються до детективного агенства Mars Investigations, тож на Вероніку чекають нові розслідування.


Тривалість: 1 серія: ~ 50 хв. (цілком серій: 8)
Перелік серій

01. Spring Break Forever
02. Chino and the Man
03. Keep Calm and Party On
04. Heads You Lose
05. Losing Streak
06. Entering a World of Pain
07. Gods of War
08. Years, Continents, Bloodshed
Якість:
Відео:
кодек:
розмір кадру: 1920x1080
бітрейт: ~11 Mб/с

Аудіо # 1:
мова: українська
переклад: багатоголосий закадровий
кодек: 5.1
бітрейт: 384 кб/с

Аудіо # 2:
мова: англійська
переклад: оригінал
кодек: 5.1
бітрейт: 640 кб/с

Джерело озвучення:
DniproFilm

Реліз оновлено. Додано відео кращої якості.
Info

Video
ID : 1
Format : AVC
Format/Info : Advanced Video Codec
Format profile : [email protected]
Format settings : CABAC / 4 Ref Frames
Format settings, CABAC : Yes
Format settings, Reference : 4 frames
Codec ID : V_MPEG4/ISO/AVC
Duration : 48 min 36 s
Bit rate : 10.2 Mb/s
Width : 1 920 pixels
Height : 1 080 pixels
Display aspect ratio : 16:9
Frame rate mode : Constant
Frame rate : 23.976 (24000/1001) FPS
Color space : YUV
Chroma subsampling : 4:2:0
Bit depth : 8 bits
Scan type : Progressive
Bits/(Pixel*Frame) : 0.205
Stream size : 3.46 GiB (91%)
Writing library : core 158 r2984 3759fcb
Encoding settings : cabac=1 / ref=4 / deblock=1:-3:-3 / analyse=0x3:0x113 / me=umh / subme=8 / psy=1 / psy_rd=1.00:0.00 / mixed_ref=1 / me_range=16 / chroma_me=1 / trellis=1 / 8x8dct=1 / cqm=0 / deadzone=21,11 / fast_pskip=1 / chroma_qp_offset=-2 / threads=30 / lookahead_threads=5 / sliced_threads=0 / nr=0 / decimate=1 / interlaced=0 / bluray_compat=0 / constrained_intra=0 / bframes=3 / b_pyramid=2 / b_adapt=1 / b_bias=0 / direct=3 / weightb=1 / open_gop=0 / weightp=2 / keyint=250 / keyint_min=23 / scenecut=40 / intra_refresh=0 / rc_lookahead=50 / rc=2pass / mbtree=1 / bitrate=10181 / ratetol=1.0 / qcomp=0.60 / qpmin=0 / qpmax=69 / qpstep=4 / cplxblur=20.0 / qblur=0.5 / ip_ratio=1.40 / aq=1:1.00
Language : English
Default : Yes
Forced : No

Audio #1
ID : 2
Format : AC-3
Format/Info : Audio Coding 3
Commercial name : Dolby Digital
Codec ID : A_AC3
Duration : 48 min 33 s
Bit rate mode : Constant
Bit rate : 384 kb/s
Channel(s) : 6 channels
Channel layout : L R C LFE Ls Rs
Sampling rate : 48.0 kHz
Frame rate : 31.250 FPS (1536 SPF)
Compression mode : Lossy
Delay relative to video : 2 s 0 ms
Stream size : 133 MiB (3%)
Title : DniproFilm
Language : Ukrainian
Service kind : Complete Main
Default : Yes
Forced : No

Audio #2
ID : 3
Format : AC-3
Format/Info : Audio Coding 3
Commercial name : Dolby Digital
Codec ID : A_AC3
Duration : 48 min 33 s
Bit rate mode : Constant
Bit rate : 640 kb/s
Channel(s) : 6 channels
Channel layout : L R C LFE Ls Rs
Sampling rate : 48.0 kHz
Frame rate : 31.250 FPS (1536 SPF)
Compression mode : Lossy
Delay relative to video : 2 s 0 ms
Stream size : 222 MiB (6%)
Language : English
Service kind : Complete Main
Default : No
Forced : No

Menu
00:00:00.000 : en:00:00:00.000
00:04:52.334 : en:00:04:52.334
00:24:15.079 : en:00:24:15.079
00:35:28.376 : en:00:35:28.376
00:41:37.995 : en:00:41:37.995
00:47:36.645 : en:00:47:36.645
Скріншоти




Авторський реліз (завантажувати можна без реєстрації)
 Трекер:    Зареєстрований   

Завантажити / скачати серіал українською



відео для новачків



 Зареєстрований:   2020-05-16 16:40
 Розмір:   30.36 GB 
 Оцінка серіалу:   9.6/10 (Голосів: 5)
   
Cartwright 
VIP


З нами з: 23.03.13
Востаннє: 04.12.20
Повідомлень: 397

2020-05-12 19:25  
Неочікувано крутий підгін. Дякую!
leicheman 
Відео Гуртом - фільмокрай
Відео Гуртом - фільмокрай


З нами з: 03.07.14
Востаннє: 04.12.20
Повідомлень: 5707

2020-05-12 20:08  
Це мабуть той випадок, коли перезапуск (продовження) старого серіалу вийшло доволі крутим (якщо не брати до уваги спірну кінцівку сезону)
DniproFilm 
VIP


З нами з: 10.10.18
Востаннє: 04.12.20
Повідомлень: 446

2020-05-14 23:18  
Додано 4-6 серії.

Neytreenor 
Відео Гуртом - запис з ТБ
Відео Гуртом - запис з ТБ


З нами з: 03.04.11
Востаннє: 04.12.20
Повідомлень: 2923

2020-05-15 08:54  
DniproFilm
Після оновлення у другій серії з'явився розсинхрон звуку. Виправте, будь ласка.

DniproFilm 
VIP


З нами з: 10.10.18
Востаннє: 04.12.20
Повідомлень: 446

2020-05-15 21:02  
Виправлено 2 серію. Додано 7 серію.

DniproFilm 
VIP


З нами з: 10.10.18
Востаннє: 04.12.20
Повідомлень: 446

2020-05-16 16:41  
Додано 8 серію (фінал).

[Captain] 
Попереджень: 1
Попереджень: 1 


З нами з: 18.02.12
Востаннє: 29.11.20
Повідомлень: 2338

2020-05-19 10:56  
Дякую за переклад. Дивився ще рік тому після виходу, але радий, що буде українське озвучення. Я цей серіал ще на "Новому" після уроків у школі дивився, ностальгія
0mage0 
VIP


З нами з: 06.10.15
Востаннє: 04.12.20
Повідомлень: 709

2020-05-23 10:45  
Загалом дивитися можна. Але баланс між серйозністю вибухів та фарсом поведінки багатьох персонажів відсутній.
Також не зрозуміло, що ж зрештою сталося із першою бомбою, її заклав Великий Член і вона вибухнула невчасно випадково, чи це таки діло рук розносника піци? І як він підлаштував вибух машини насамкінець таким чином, щоб Логан був у ній. Логана не здивувало смс про прибирання на вулиці, тобто це була звичайна річ, але звідки розносник піци міг знати, що машину припаркують саме в такому місці, де прибирання саме в цей час. Та ще й чувак прийде переставляти машину рівно за хвилину після повідомлення.

don pedro 
Попереджень: 1
Попереджень: 1 


З нами з: 29.06.11
Востаннє: 04.12.20
Повідомлень: 18255

2020-05-23 15:57  
0mage0 написано:
це таки діло рук

Ні. Він просто використав цей вибух-залякування для своїх терактів.

Ваш часовий пояс: GMT + 2 Години

Нова тема   Відповісти