Пасхальний досвід (Сезон 1) / The Easter Experience (Season 1) (2007) 1080p

Нові коментарі

Нова тема   Відповісти
Автор Повідомлення
Andrew_Buenos 
Новенький


З нами з: 17.01.11
Востаннє: 03.12.20
Повідомлень: 10

2020-05-12 16:14  
Пасхальний досвід (Сезон 1) / The Easter Experience (Season 1) (2007) 1080p

Пасхальний досвід (Сезон 1) / The Easter Experience (Season 1) (2007) 1080p


Жанр: історичний, документальний, драма
Країна: США


Кінокомпанія / телеканал: City on a Hill / CBN
Режисер: Шейн Сутер
Сюжет:
Який сенс свята Пасхи? Сім серій історичного серіалу “Пасхальний досвід” розповідають про останні сім днів земного життя Ісуса Христа. Пориньте у вир тих далеких подій та відчуйте переживання Страсного тижня через спогади учнів Ісуса та Його матері!


Тривалість: 1 серія: ~23:30-43:00 (цілком серій: 7)
Перелік серій
Епізод 1. Таємна вечеря. Зрада Юди.
Епізод 2. Зречення Петра та самогубство Юди.
Епізод 3. Ісус перед Пилатом.
Епізод 4. Шлях на Голгофу.
Епізод 5. Епізод 5. Три хрести. Розп’яття Ісуса та розбійники.
Епізод 6. Ісуса нема у гробі. Він воскрес!
Епізод 7. Матір Ісуса, Петро та Марія Магдалина.
Якість:
Відео:
кодек:
розмір кадру: 1920 × 1080
бітрейт: 7,24 Мбіт/с

Аудіо:
мова: українська
переклад: багатоголосий закадровий / CBN UKRAINE
кодек: 2.0
бітрейт: 317~456 кб/с
Info

Епізод 1. Таємна вечеря. Зрада Юди.
General
Complete name : /Пасхальний Досвід (2007)/Епізод 1. Таємна вечеря. Зрада Юди.mp4
Format : MPEG-4
Format profile : Base Media / Version 2
Codec ID : mp42 (mp42/mp41)
File size : 1.28 GiB
Duration : 25 min 15 s
Overall bit rate mode : Variable
Overall bit rate : 7 235 kb/s
Encoded date : UTC 2019-04-16 09:35:23
Tagged date : UTC 2019-04-16 10:00:02
TIM : 00:00:00:00
TSC : 25
TSZ : 1
Video
ID : 1
Format : AVC
Format/Info : Advanced Video Codec
Format profile : [email protected]
Format settings : CABAC / 4 Ref Frames
Format settings, CABAC : Yes
Format settings, Reference frames : 4 frames
Codec ID : avc1
Codec ID/Info : Advanced Video Coding
Duration : 25 min 15 s
Bit rate : 6 914 kb/s
Width : 1 920 pixels
Height : 1 080 pixels
Display aspect ratio : 16:9
Frame rate mode : Constant
Frame rate : 25.000 FPS
Standard : PAL
Color space : YUV
Chroma subsampling : 4:2:0
Bit depth : 8 bits
Scan type : Progressive
Bits/(Pixel*Frame) : 0.133
Stream size : 1.22 GiB (96%)
Language : English
Encoded date : UTC 2019-04-16 09:35:24
Tagged date : UTC 2019-04-16 09:35:24
Color range : Limited
Color primaries : BT.709
Transfer characteristics : BT.709
Matrix coefficients : BT.709
Codec configuration box : avcC
Audio
ID : 2
Format : LC
Format/Info : Advanced Audio Codec Low Complexity
Codec ID : mp4a-40-2
Duration : 25 min 15 s
Source duration : 25 min 15 s
Bit rate mode : Variable
Bit rate : 317 kb/s
Maximum bit rate : 456 kb/s
Channel(s) : 2 channels
Channel layout : L R
Sampling rate : 48.0 kHz
Frame rate : 46.875 FPS (1024 SPF)
Compression mode : Lossy
Stream size : 57.3 MiB (4%)
Source stream size : 57.3 MiB (4%)
Language : English
Encoded date : UTC 2019-04-16 09:35:24
Tagged date : UTC 2019-04-16 09:35:24

Епізод 2. Зречення Петра та самогубство Юди.
General
Complete name : /Пасхальний Досвід (2007)/Епізод 2. Зречення Петра та самогубство Юди.mp4
Format : MPEG-4
Format profile : Base Media / Version 2
Codec ID : mp42 (mp42/mp41)
File size : 1.52 GiB
Duration : 30 min 5 s
Overall bit rate mode : Variable
Overall bit rate : 7 239 kb/s
Encoded date : UTC 2019-04-16 10:00:14
Tagged date : UTC 2019-04-16 10:31:56
TIM : 00:00:00:00
TSC : 25
TSZ : 1
Video
ID : 1
Format : AVC
Format/Info : Advanced Video Codec
Format profile : [email protected]
Format settings : CABAC / 4 Ref Frames
Format settings, CABAC : Yes
Format settings, Reference frames : 4 frames
Codec ID : avc1
Codec ID/Info : Advanced Video Coding
Duration : 30 min 5 s
Bit rate : 6 918 kb/s
Width : 1 920 pixels
Height : 1 080 pixels
Display aspect ratio : 16:9
Frame rate mode : Constant
Frame rate : 25.000 FPS
Standard : PAL
Color space : YUV
Chroma subsampling : 4:2:0
Bit depth : 8 bits
Scan type : Progressive
Bits/(Pixel*Frame) : 0.133
Stream size : 1.45 GiB (96%)
Language : English
Encoded date : UTC 2019-04-16 10:00:14
Tagged date : UTC 2019-04-16 10:00:14
Color range : Limited
Color primaries : BT.709
Transfer characteristics : BT.709
Matrix coefficients : BT.709
Codec configuration box : avcC
Audio
ID : 2
Format : LC
Format/Info : Advanced Audio Codec Low Complexity
Codec ID : mp4a-40-2
Duration : 30 min 5 s
Source duration : 30 min 5 s
Bit rate mode : Variable
Bit rate : 317 kb/s
Maximum bit rate : 470 kb/s
Channel(s) : 2 channels
Channel layout : L R
Sampling rate : 48.0 kHz
Frame rate : 46.875 FPS (1024 SPF)
Compression mode : Lossy
Stream size : 68.3 MiB (4%)
Source stream size : 68.3 MiB (4%)
Language : English
Encoded date : UTC 2019-04-16 10:00:14
Tagged date : UTC 2019-04-16 10:00:14

Епізод 3. Ісус перед Пилатом.
General
Complete name : /Пасхальний Досвід (2007)/Епізод 3. Ісус перед Пилатом.mp4
Format : MPEG-4
Format profile : Base Media / Version 2
Codec ID : mp42 (mp42/mp41)
File size : 1.30 GiB
Duration : 25 min 37 s
Overall bit rate mode : Variable
Overall bit rate : 7 254 kb/s
Encoded date : UTC 2019-04-16 10:33:05
Tagged date : UTC 2019-04-16 10:59:33
TIM : 00:00:00:00
TSC : 25
TSZ : 1
Video
ID : 1
Format : AVC
Format/Info : Advanced Video Codec
Format profile : [email protected]
Format settings : CABAC / 4 Ref Frames
Format settings, CABAC : Yes
Format settings, Reference frames : 4 frames
Codec ID : avc1
Codec ID/Info : Advanced Video Coding
Duration : 25 min 37 s
Bit rate : 6 933 kb/s
Width : 1 920 pixels
Height : 1 080 pixels
Display aspect ratio : 16:9
Frame rate mode : Constant
Frame rate : 25.000 FPS
Standard : PAL
Color space : YUV
Chroma subsampling : 4:2:0
Bit depth : 8 bits
Scan type : Progressive
Bits/(Pixel*Frame) : 0.134
Stream size : 1.24 GiB (96%)
Language : English
Encoded date : UTC 2019-04-16 10:33:06
Tagged date : UTC 2019-04-16 10:33:06
Color range : Limited
Color primaries : BT.709
Transfer characteristics : BT.709
Matrix coefficients : BT.709
Codec configuration box : avcC
Audio
ID : 2
Format : LC
Format/Info : Advanced Audio Codec Low Complexity
Codec ID : mp4a-40-2
Duration : 25 min 37 s
Source duration : 25 min 37 s
Bit rate mode : Variable
Bit rate : 317 kb/s
Maximum bit rate : 456 kb/s
Channel(s) : 2 channels
Channel layout : L R
Sampling rate : 48.0 kHz
Frame rate : 46.875 FPS (1024 SPF)
Compression mode : Lossy
Stream size : 58.2 MiB (4%)
Source stream size : 58.2 MiB (4%)
Language : English
Encoded date : UTC 2019-04-16 10:33:06
Tagged date : UTC 2019-04-16 10:33:06

Епізод 4. Шлях на Голгофу.
General
Complete name : /Пасхальний Досвід (2007)/Епізод 4. Шлях на Голгофу.mp4
Format : MPEG-4
Format profile : Base Media / Version 2
Codec ID : mp42 (mp42/mp41)
File size : 1.19 GiB
Duration : 23 min 31 s
Overall bit rate mode : Variable
Overall bit rate : 7 236 kb/s
Encoded date : UTC 2019-04-16 11:00:36
Tagged date : UTC 2019-04-16 11:26:05
TIM : 00:00:00:00
TSC : 25
TSZ : 1
Video
ID : 1
Format : AVC
Format/Info : Advanced Video Codec
Format profile : [email protected]
Format settings : CABAC / 4 Ref Frames
Format settings, CABAC : Yes
Format settings, Reference frames : 4 frames
Codec ID : avc1
Codec ID/Info : Advanced Video Coding
Duration : 23 min 31 s
Bit rate : 6 915 kb/s
Width : 1 920 pixels
Height : 1 080 pixels
Display aspect ratio : 16:9
Frame rate mode : Constant
Frame rate : 25.000 FPS
Standard : PAL
Color space : YUV
Chroma subsampling : 4:2:0
Bit depth : 8 bits
Scan type : Progressive
Bits/(Pixel*Frame) : 0.133
Stream size : 1.14 GiB (96%)
Language : English
Encoded date : UTC 2019-04-16 11:00:36
Tagged date : UTC 2019-04-16 11:00:36
Color range : Limited
Color primaries : BT.709
Transfer characteristics : BT.709
Matrix coefficients : BT.709
Codec configuration box : avcC
Audio
ID : 2
Format : LC
Format/Info : Advanced Audio Codec Low Complexity
Codec ID : mp4a-40-2
Duration : 23 min 31 s
Bit rate mode : Variable
Bit rate : 317 kb/s
Maximum bit rate : 456 kb/s
Channel(s) : 2 channels
Channel layout : L R
Sampling rate : 48.0 kHz
Frame rate : 46.875 FPS (1024 SPF)
Compression mode : Lossy
Stream size : 53.4 MiB (4%)
Language : English
Encoded date : UTC 2019-04-16 11:00:37
Tagged date : UTC 2019-04-16 11:00:37

Епізод 5. Епізод 5. Три хрести. Розп’яття Ісуса та розбійники.
General
Complete name : /Пасхальний Досвід (2007)/Епізод 5. Три хрести. Розп’яття Ісуса та розбійники.mp4
Format : MPEG-4
Format profile : Base Media / Version 2
Codec ID : mp42 (mp42/mp41)
File size : 1.41 GiB
Duration : 27 min 50 s
Overall bit rate mode : Variable
Overall bit rate : 7 232 kb/s
Encoded date : UTC 2019-04-16 11:27:12
Tagged date : UTC 2019-04-16 11:54:44
TIM : 00:00:00:00
TSC : 25
TSZ : 1
Video
ID : 1
Format : AVC
Format/Info : Advanced Video Codec
Format profile : [email protected]
Format settings : CABAC / 4 Ref Frames
Format settings, CABAC : Yes
Format settings, Reference frames : 4 frames
Codec ID : avc1
Codec ID/Info : Advanced Video Coding
Duration : 27 min 50 s
Bit rate : 6 911 kb/s
Width : 1 920 pixels
Height : 1 080 pixels
Display aspect ratio : 16:9
Frame rate mode : Constant
Frame rate : 25.000 FPS
Standard : PAL
Color space : YUV
Chroma subsampling : 4:2:0
Bit depth : 8 bits
Scan type : Progressive
Bits/(Pixel*Frame) : 0.133
Stream size : 1.34 GiB (96%)
Language : English
Encoded date : UTC 2019-04-16 11:27:12
Tagged date : UTC 2019-04-16 11:27:12
Color range : Limited
Color primaries : BT.709
Transfer characteristics : BT.709
Matrix coefficients : BT.709
Codec configuration box : avcC
Audio
ID : 2
Format : LC
Format/Info : Advanced Audio Codec Low Complexity
Codec ID : mp4a-40-2
Duration : 27 min 50 s
Source duration : 27 min 50 s
Bit rate mode : Variable
Bit rate : 317 kb/s
Maximum bit rate : 458 kb/s
Channel(s) : 2 channels
Channel layout : L R
Sampling rate : 48.0 kHz
Frame rate : 46.875 FPS (1024 SPF)
Compression mode : Lossy
Stream size : 63.2 MiB (4%)
Source stream size : 63.2 MiB (4%)
Language : English
Encoded date : UTC 2019-04-16 11:27:13
Tagged date : UTC 2019-04-16 11:27:13

Епізод 6. Ісуса нема у гробі. Він воскрес!
General
Complete name : /Пасхальний Досвід (2007)/Епізод 6. Ісуса нема у гробі. Він воскрес!.mp4
Format : MPEG-4
Format profile : Base Media / Version 2
Codec ID : mp42 (mp42/mp41)
File size : 1.42 GiB
Duration : 28 min 30 s
Overall bit rate mode : Variable
Overall bit rate : 7 108 kb/s
Encoded date : UTC 2019-04-16 11:54:56
Tagged date : UTC 2019-04-16 12:22:31
TIM : 00:00:00:00
TSC : 25
TSZ : 1
Video
ID : 1
Format : AVC
Format/Info : Advanced Video Codec
Format profile : [email protected]
Format settings : CABAC / 4 Ref Frames
Format settings, CABAC : Yes
Format settings, Reference frames : 4 frames
Codec ID : avc1
Codec ID/Info : Advanced Video Coding
Duration : 28 min 30 s
Bit rate : 6 787 kb/s
Width : 1 920 pixels
Height : 1 080 pixels
Display aspect ratio : 16:9
Frame rate mode : Constant
Frame rate : 25.000 FPS
Standard : PAL
Color space : YUV
Chroma subsampling : 4:2:0
Bit depth : 8 bits
Scan type : Progressive
Bits/(Pixel*Frame) : 0.131
Stream size : 1.35 GiB (95%)
Language : English
Encoded date : UTC 2019-04-16 11:54:57
Tagged date : UTC 2019-04-16 11:54:57
Color range : Limited
Color primaries : BT.709
Transfer characteristics : BT.709
Matrix coefficients : BT.709
Codec configuration box : avcC
Audio
ID : 2
Format : LC
Format/Info : Advanced Audio Codec Low Complexity
Codec ID : mp4a-40-2
Duration : 28 min 30 s
Source duration : 28 min 30 s
Bit rate mode : Variable
Bit rate : 317 kb/s
Maximum bit rate : 457 kb/s
Channel(s) : 2 channels
Channel layout : L R
Sampling rate : 48.0 kHz
Frame rate : 46.875 FPS (1024 SPF)
Compression mode : Lossy
Stream size : 64.7 MiB (4%)
Source stream size : 64.7 MiB (4%)
Language : English
Encoded date : UTC 2019-04-16 11:54:57
Tagged date : UTC 2019-04-16 11:54:57

Епізод 7. Матір Ісуса, Петро та Марія Магдалина.
General
Complete name : /Пасхальний Досвід (2007)/Епізод 7. Матір Ісуса, Петро та Марія Магдалина.mp4
Format : MPEG-4
Format profile : Base Media / Version 2
Codec ID : mp42 (mp42/mp41)
File size : 2.18 GiB
Duration : 42 min 58 s
Overall bit rate mode : Variable
Overall bit rate : 7 246 kb/s
Encoded date : UTC 2019-04-16 12:22:42
Tagged date : UTC 2019-04-16 13:03:56
TIM : 00:00:00:00
TSC : 25
TSZ : 1
Video
ID : 1
Format : AVC
Format/Info : Advanced Video Codec
Format profile : [email protected]
Format settings : CABAC / 4 Ref Frames
Format settings, CABAC : Yes
Format settings, Reference frames : 4 frames
Codec ID : avc1
Codec ID/Info : Advanced Video Coding
Duration : 42 min 58 s
Bit rate : 6 925 kb/s
Width : 1 920 pixels
Height : 1 080 pixels
Display aspect ratio : 16:9
Frame rate mode : Constant
Frame rate : 25.000 FPS
Standard : PAL
Color space : YUV
Chroma subsampling : 4:2:0
Bit depth : 8 bits
Scan type : Progressive
Bits/(Pixel*Frame) : 0.134
Stream size : 2.08 GiB (96%)
Language : English
Encoded date : UTC 2019-04-16 12:22:42
Tagged date : UTC 2019-04-16 12:22:42
Color range : Limited
Color primaries : BT.709
Transfer characteristics : BT.709
Matrix coefficients : BT.709
Codec configuration box : avcC
Audio
ID : 2
Format : LC
Format/Info : Advanced Audio Codec Low Complexity
Codec ID : mp4a-40-2
Duration : 42 min 58 s
Source duration : 42 min 58 s
Bit rate mode : Variable
Bit rate : 317 kb/s
Maximum bit rate : 461 kb/s
Channel(s) : 2 channels
Channel layout : L R
Sampling rate : 48.0 kHz
Frame rate : 46.875 FPS (1024 SPF)
Compression mode : Lossy
Stream size : 97.6 MiB (4%)
Source stream size : 97.6 MiB (4%)
Language : English
Encoded date : UTC 2019-04-16 12:22:43
Tagged date : UTC 2019-04-16 12:22:43
Скріншоти





Джерело:
Особиста оцінка: 10 - без зайвих вагань рекомендую всім!


Бронзовий реліз (на рейтинг впливає 75% завантаженого)
 Трекер:    Зареєстрований   

Завантажити / скачати серіал українською



відео для новачків



 Зареєстрований:   2020-05-12 16:14
 Розмір:   10.28 GB 
 Оцінка серіалу:   7.8/10 (Голосів: 4)
   
bohdk 
Відео Гуртом - субтитрування
Відео Гуртом - субтитрування


З нами з: 23.10.09
Востаннє: 03.12.20
Повідомлень: 741

2020-05-12 18:50  
Andrew_Buenos
Чому б не відмовитися від ціє жалюгідної кальки з російської? Пасхальний? - Великодній.

Andrew_Buenos 
Новенький


З нами з: 17.01.11
Востаннє: 03.12.20
Повідомлень: 10

2020-05-12 20:00  
bohdk
Тому що Пасха - це єврейське свято, а не російське. І серіал цей про єврейську Пасху, а не про український Великдень Happy

leicheman 
Відео Гуртом - фільмокрай
Відео Гуртом - фільмокрай


З нами з: 03.07.14
Востаннє: 04.12.20
Повідомлень: 5705

2020-05-12 20:11  
Andrew_Buenos написано:
переклад: двоголосий закадровий


вкажіть хто озвучив (телеканал, любительський, проф на замовлення)

Myshko3007 
Свій


З нами з: 16.01.11
Востаннє: 03.12.20
Повідомлень: 66

2020-05-12 20:43  
"Жанр: історичний, документальний"
Та невже? Відколи ці подіі визнані історичними? Це, скорше, - "фентезі" Wide grin

Andrew_Buenos 
Новенький


З нами з: 17.01.11
Востаннє: 03.12.20
Повідомлень: 10

2020-05-12 21:29  
Myshko3007
Відколи ці події були описані в працях таких істориків як Йосип Флавій, Тацит та інші, котрі були противниками християнства Wink (1)

Camomile_crazzy 
Частий відвідувач


З нами з: 18.07.12
Востаннє: 04.12.20
Повідомлень: 27

2020-05-12 21:40  
Andrew_Buenos написано:
Тому що Пасха - це єврейське свято, а не російське. І серіал цей про єврейську Пасху, а не про український Великдень

Вели́кдень[1], Воскресі́ння Христо́ве (грец. Ἡ Ανάστασις τοῦ Ἰησοῦ Χριστοῦ; ст.-сл. Великъ дьнь, пол. Wielkanoc), Па́сха, також Па́ска (грец. πάσχα, лат. Pascha, івр. פסח‎ песах — проходження повз) — найдавніше християнське свято, головне свято богослужебного року, що встановлено на честь Воскресіння Ісуса Христа.

Старозавітна (еврейська) Пасха — Песах святкується на честь виходу ізраїльського народу з єгипетської неволі, перехід від рабства до свободи. Воскресіння Христове — це перехід від смерті до життя, звільнення нас від тягаря гріхів, це вихід, перехід людини з рабства гріха, зла до свободи любові, добра.

тепер питання - серіал про останні дні Христа, чи про втечу евреїв з Єгипту?

Andrew_Buenos 
Новенький


З нами з: 17.01.11
Востаннє: 03.12.20
Повідомлень: 10

2020-05-12 22:23  
Camomile_crazzy
Якщо Ви не розумієте зв'язку між єврейським "Песах" і Воскресінням Христа - раджу поцікавитися теологією та богослів'ям. Не хочу нікого образити, але українсько-православний Великдень має дуже поверхневе відношення до Біблійної Пасхи, про яку в цьому серіалі і йдеться.

Додано через 5 хвилин 23 секунди:

leicheman написано:
вкажіть хто озвучив (телеканал, любительський, проф на замовлення)

Гаразд, лише знайду цю інформацію, бо наразі не знаю як про це дізнатися)

leicheman 
Відео Гуртом - фільмокрай
Відео Гуртом - фільмокрай


З нами з: 03.07.14
Востаннє: 04.12.20
Повідомлень: 5705

2020-05-12 22:30  
Andrew_Buenos написано:
бо наразі не знаю як про це дізнатися

Я так розумію, що ви його узяли з CBN UKRAINE ? Можете так і вказати)

+ вам ще треба обов'язково додати Info

olgak58 
Новенький


З нами з: 21.09.12
Востаннє: 03.12.20
Повідомлень: 16

2020-05-12 23:01  
Полізла в гугл. The Easter перекладає як Великдень
bohdk 
Відео Гуртом - субтитрування
Відео Гуртом - субтитрування


З нами з: 23.10.09
Востаннє: 03.12.20
Повідомлень: 741

2020-05-13 06:28  
Andrew_Buenos
Таке враження, що ви все-таки плутаєте два різні свята. Та й в англійському відповіднику було б passover, а не easter.

Andrew_Buenos 
Новенький


З нами з: 17.01.11
Востаннє: 03.12.20
Повідомлень: 10

2020-05-13 10:46  
Пані та панове! Питання "Пасха чи Великдень" - це питання розуміння Біблійного контексту, а не питання вміння "гуглити" чи шанування національних традицій... Якщо хтось не згідний з перекладом назви серіалу - усі претензії до автора цього перекладу Happy Б'юся об заклад, що над питанням як перекласти "Star Wars" ніхто так довго не бідкався.. Чи може в когось були сумніви щодо доцільності слова "Зоряні"?) Якщо цей мій аргумент - все ж не аргумент, - то нехай прикріплений скрін покладе край цим порожнім балачкам Wink (1)


Додано через 1 годину 25 хвилин 21 секунду:

leicheman
Додав Info та вказав джерело озвучення як Ви радили.

11FrYkT 
Модератор відео


З нами з: 20.02.11
Востаннє: 03.12.20
Повідомлень: 7049

2020-05-13 14:54  
Andrew_Buenos написано:
Language : English

а ще надалі укр доріжку потрібно називати як укр а не якоюсь іншою

bot 
робот


З нами з: 30.09.07
Востаннє: 26.05.05
Повідомлень: 26449

2020-05-13 14:54  
Тему перенесено з Телесеріали до форуму Серіали в HD


11FrYkT

waldi-hurtom 
VIP


З нами з: 07.10.12
Востаннє: 02.12.20
Повідомлень: 1218

2020-06-05 13:23  
Йой, штучний інтелект гугла став найавторитетнішим експертом, капець! Сірожа Брін буде вирішувати, чи можна українцям казати Великдень про Великдень. Унтерменш рулить форева! Залиште пасху кацапам, вони вважають, що так канонічніше.
Щодо серіалу - як на мене, забагато протестантизму, замало логіки та самої Євангелії. Дурнуваті міркування про жадібність Юди одразу в першій серії. Важко прочитати Новий Завіт, чи що? Юда був тримачем скарбнички Ісусової школи. 30 срібняків, на які він начебто спокусився, дорівнюють 1/10 таланта або 120 дінаріям, тобто 4 місячним зарплатам вояка чи іншої більш-менш кваліфікованої людини. Або вартості 120 невеликих овечок. Або в 2.5 рази менше вартості мира, що Марія Магдалена вилила на Христа (120/300). Усі вперто ігнорують факт, описаний ЯВНО і ОДНОЗНАЧНО в Новому Завіті, що Юда виконував волю Христа: "Йди і зроби це", щоб Син Божий міг прославитися через смерть і воскресіння. Таке тупе моралізаторство мене бісить. Тож далі дивитися не буду. До того ж підбір акторів, міміка, шипи терену в 100 разів більші за справжні, хрест, нарешті, що суперечить археологічним реконструкціям... Коротше, в топку!

Andrew_Buenos 
Новенький


З нами з: 17.01.11
Востаннє: 03.12.20
Повідомлень: 10

2020-06-09 09:14  
waldi-hurtom
Ну власне, подібні серіали та фільми і виготовляються для тих, кому впадло читати Біблію Happy І це логічно, що жоден з них не в змозі передати бодай частину величі Божого Слова Wink (1)

Ваш часовий пояс: GMT + 2 Години

Нова тема   Відповісти