У моїх мріях / In My Dreams (2014) AVC Ukr/Eng | sub Eng

Нові коментарі

Нова тема   Відповісти
Автор Повідомлення
Arsenfpu 
Відео Гуртом - фільмокрай
Відео Гуртом - фільмокрай


З нами з: 30.04.09
Востаннє: 03.07.20
Повідомлень: 7031

2020-05-12 10:44  
У моїх мріях / In My Dreams (2014) AVC Ukr/Eng | sub Eng

У моїх мріях / In My Dreams (2014) AVC Ukr/Eng | sub Eng


Жанр: мелодрама, драма
Країна: США



Кінокомпанія: Hallmark Hall of Fame Productions, Rocket Science VFX
Режисер: Кенні Леон
Актори: Кетрін МакФі, Майк Фогель, ДжоБет Вільямс, Джо Массінджілл, Рейчел Скарстен, Антоніо Цупо, Джессалін Ванлі, Кьяра Дзанни, Ерік Кінлісайд, Еріка Керролл

Сюжет:
Нік і Наталі є ідеальною парою, тільки вони в дійсності ніколи не зустрічалися. Кинувши монетки в фонтан Хейвард вони стали мріяти один про одного. За легендою фонтану у них є рівно сім днів, щоб перетворити свої мрії в реальність.


Тривалість: 01:34:04
Якість:
Відео:
кодек:
розмір кадру: 1 024 х 576
бітрейт: 2 299 кб/с

Аудіо # 1:
мова: українська
переклад: багатоголосий закадровий
кодек: 2.0
бітрейт: 192 кб/с

Аудіо # 2:
мова: англійська
переклад: оригінал
кодек: 2.0
бітрейт: 192 кб/с

Субтитри:
мова: англійська
тип: програмні (м'які)
формат: *.srt
Скріншоти














Про файл
General
Unique ID : 20432108131434365468830455492876104171 (0xF5F14B50EE5937C88B099640596F1EB)
Complete name : C:\In My Dreams (2014) [Ukr,Eng] AVC [Hurtom].
Format :
Format version : Version 4 / Version 2
File size : 1.76 GiB
Duration : 1 h 34 min
Overall bit rate : 2 686 kb/s
Movie name : У моїх мріях / In My Dreams (2014)
Encoded date : UTC 2020-05-18 20:34:18
Writing application : v21.0.0 ('Tardigrades Will Inherit The Earth') 32-bit
Writing library : libebml v1.3.5 + v1.4.8
Cover : Yes
Attachments : cover.jpg

Video
ID : 1
Format : AVC
Format/Info : Advanced Video Codec
Format profile : [email protected]
Format settings, CABAC : Yes
Format settings, ReFrames : 4 frames
Codec ID : V_MPEG4/ISO/AVC
Duration : 1 h 34 min
Bit rate : 2 299 kb/s
Width : 1 024 pixels
Height : 576 pixels
Display aspect ratio : 16:9
Frame rate mode : Constant
Frame rate : 23.976 (24000/1001) FPS
Color space : YUV
Chroma subsampling : 4:2:0
Bit depth : 8 bits
Scan type : Progressive
Bits/(Pixel*Frame) : 0.163
Stream size : 1.51 GiB (86%)
Writing library : core 157 r2935 545de2f
Encoding settings : cabac=1 / ref=3 / deblock=1:-1:-1 / analyse=0x3:0x113 / me=hex / subme=7 / psy=1 / psy_rd=1.00:0.15 / mixed_ref=1 / me_range=16 / chroma_me=1 / trellis=1 / 8x8dct=1 / cqm=0 / deadzone=21,11 / fast_pskip=1 / chroma_qp_offset=-3 / threads=12 / lookahead_threads=2 / sliced_threads=0 / nr=0 / decimate=1 / interlaced=0 / bluray_compat=0 / constrained_intra=0 / bframes=3 / b_pyramid=2 / b_adapt=1 / b_bias=0 / direct=1 / weightb=1 / open_gop=0 / weightp=2 / keyint=240 / keyint_min=23 / scenecut=40 / intra_refresh=0 / rc_lookahead=40 / rc=2pass / mbtree=1 / bitrate=2299 / ratetol=1.0 / qcomp=0.60 / qpmin=0 / qpmax=69 / qpstep=4 / cplxblur=20.0 / qblur=0.5 / ip_ratio=1.40 / aq=1:1.00
Default : Yes
Forced : No

Audio #1
ID : 2
Format : AC-3
Format/Info : Audio Coding 3
Mode extension : CM (complete main)
Format settings, Endianness : Big
Codec ID : A_AC3
Duration : 1 h 34 min
Bit rate mode : Constant
Bit rate : 192 kb/s
Channel(s) : 2 channels
Channel positions : Front: L R
Sampling rate : 48.0 kHz
Frame rate : 31.250 FPS (1536 spf)
Compression mode : Lossy
Stream size : 129 MiB (7%)
Title : СТБ
Language : Ukrainian
Default : Yes
Forced : Yes

Audio #2
ID : 3
Format : AC-3
Format/Info : Audio Coding 3
Mode extension : CM (complete main)
Format settings, Endianness : Big
Codec ID : A_AC3
Duration : 1 h 34 min
Bit rate mode : Constant
Bit rate : 192 kb/s
Channel(s) : 2 channels
Channel positions : Front: L R
Sampling rate : 48.0 kHz
Frame rate : 31.250 FPS (1536 spf)
Compression mode : Lossy
Stream size : 129 MiB (7%)
Language : English
Default : No
Forced : No

Text
ID : 4
Format : UTF-8
Codec ID : S_TEXT/UTF8
Codec ID/Info : UTF-8 Plain Text
Duration : 1 h 32 min
Bit rate : 71 b/s
Count of elements : 1860
Stream size : 48.5 KiB (0%)
Language : English
Default : Yes
Forced : No
Джерело:
За запис з ТБ дякую пану Bohdan237
За постер дякую пану alexander_bortnyk
Особиста оцінка: не дивився


 Трекер:    Зареєстрований   

Завантажити / скачати фільм українською



відео для новачків



 Зареєстрований:   2020-05-18 23:57
 Розмір:   1.76 GB 
 Оцінка фільму:   9.7/10 (Голосів: 14)
   
Інші релізи
   В моїх мріях / In My Dreams (2014) 1080p Ukr/Eng drop_plz  6 / 0   3.43 GB   2020-05-17 13:29 
bot 
робот


З нами з: 30.09.07
Востаннє: 26.05.05
Повідомлень: 24931

2020-05-18 23:57  
Тему перенесено з Анонси релізів до форуму Фільми


Arsenfpu

Nikko033 
VIP


З нами з: 31.12.12
Востаннє: 03.07.20
Повідомлень: 618

2020-05-19 23:26  
в принципі не погана мелодрама з приємними акторами 8/10
NemoInFire 
Відео Гуртом - фільмокрай
Відео Гуртом - фільмокрай


З нами з: 12.11.07
Востаннє: 03.07.20
Повідомлень: 652

2020-05-20 21:21  
Приємне кіно з цікавим сюжетом.
Шкода тільки, що Кетрін МакФі так рідко вдається побачити на екрані.

kuts-vv 
VIP


З нами з: 11.12.11
Востаннє: 03.07.20
Повідомлень: 312

2020-05-24 14:32  
Нічого так. Доволі пристойний фільм. Нормальна гра акторів. Приємний переглад.
andriy_nv 
VIP


З нами з: 27.06.08
Востаннє: 03.07.20
Повідомлень: 1039

2020-06-01 18:42  
нормальна романтична казочка
Ваш часовий пояс: GMT + 2 Години

Нова тема   Відповісти