Вакансія на жертву / Vacancy (2007) 1080p Ukr/Eng | Sub Eng

Нові коментарі

Нова тема   Відповісти
Автор Повідомлення
Anonymous 







2020-05-12 03:17  
Вакансія на жертву / Vacancy (2007) 1080p Ukr/Eng | Sub Eng


Оригінальний постер:

Вакансія на жертву / Vacancy (2007) 1080p Ukr/Eng | Sub Eng




Жанр: жахи, містика, трилер
Країна: США



Кінокомпанія: Screen Gems, Hal Lieberman Company
Режисер: Німрод Антал
Сценарист: Марк Л. Сміт
Композитор: Пол Гаслінгер
Актори: Люк Вілсон, Кеті Бекінсейл, Френк Вейлі, Ітен Імбрі, Скотт Дж. Андерсон, Марк Каселла, Девід Доуті, Норм Комптон, Керін Мовер
Бюджет: 19 000 000 $

Сюжет:
Опинившись в скрутному положенні у відрізаному від всього світу мотелі, щойно одружені додатково до решти неприємностей виявляють приховані камери в своєму номері. Вони не встигають вибратися і розуміють, що стали новими жертвами - маріонетками в чиємусь жорстоко задуманому реаліті-шоу.

Тривалість: 01:25:05
Якість: 1080p
Відео:
Кодек:
Розмір кадру: 1920 x 800
Бітрейт: 14.3 Мбіт/с

Аудіо 1:
Мова: українська
Переклад: багатоголосий закадровий[К1]

Кодек: 5.1
Бітрейт: 448 Кбіт/с

Аудіо 2:
Мова: англійська
Переклад: Оригінал
Кодек: 5.1
Бітрейт: 1509 Кбіт/с

Субтитри:
Мова: англійська
Тип: програмні (м'які)
Формат: *.srt

Info


General
Unique ID : 11259055134284587872760105285893413921 (0x8786A46CD79D62F68F8BE046712DC21)
Format :
Format version : Version 4
File size : 9.68 GiB
Duration : 1 h 25 min
Overall bit rate : 16.3 Mb/s
Movie name : Vacancy (2007) 1080p [UkrEng][SubEng] [Hurtom]
Encoded date : UTC 2020-05-11 23:33:55
Writing application : v46.0.0 ('No Deeper Escape') 64-bit
Writing library : libebml v1.3.10 + v1.5.2
Attachments : poster_ukr.jpg / poster_eng.jpg

Video
ID : 1
Format : AVC
Format/Info : Advanced Video Codec
Format profile : [email protected]
Format settings : CABAC / 5 Ref Frames
Format settings, CABAC : Yes
Format settings, Reference fra : 5 frames
Codec ID : V_MPEG4/ISO/AVC
Duration : 1 h 25 min
Bit rate : 14.3 Mb/s
Width : 1 920 pixels
Height : 800 pixels
Display aspect ratio : 2.40:1
Frame rate mode : Constant
Frame rate : 23.976 (24000/1001) FPS
Color space : YUV
Chroma subsampling : 4:2:0
Bit depth : 8 bits
Scan type : Progressive
Bits/(Pixel*Frame) : 0.389
Stream size : 8.52 GiB (88%)
Title : Vacancy (2007) 1080p
Writing library : core 157 r2935 545de2f
Encoding settings : cabac=1 / ref=5 / deblock=1:-3:-3 / analyse=0x1:0x131 / me=umh / subme=10 / psy=1 / psy_rd=1.00:0.15 / mixed_ref=1 / me_range=24 / chroma_me=1 / trellis=2 / 8x8dct=0 / cqm=0 / deadzone=21,11 / fast_pskip=0 / chroma_qp_offset=-3 / threads=18 / lookahead_threads=3 / sliced_threads=0 / nr=0 / decimate=1 / interlaced=0 / bluray_compat=0 / constrained_intra=0 / bframes=8 / b_pyramid=2 / b_adapt=2 / b_bias=0 / direct=3 / weightb=1 / open_gop=0 / weightp=2 / keyint=240 / keyint_min=24 / scenecut=40 / intra_refresh=0 / rc_lookahead=60 / rc=2pass / mbtree=1 / bitrate=14336 / ratetol=1.0 / qcomp=0.60 / qpmin=0 / qpmax=69 / qpstep=4 / cplxblur=20.0 / qblur=0.5 / vbv_maxrate=50000 / vbv_bufsize=62500 / nal_hrd=none / filler=0 / ip_ratio=1.40 / aq=1:1.00
Language : English
Default : Yes
Forced : No
Color range : Limited
Color primaries : BT.709
Transfer characteristics : BT.709
Matrix coefficients : BT.709

Audio #1
ID : 2
Format : AC-3
Format/Info : Audio Coding 3
Commercial name : Dolby Digital
Codec ID : A_AC3
Duration : 1 h 25 min
Bit rate mode : Constant
Bit rate : 448 kb/s
Channel(s) : 6 channels
Channel layout : L R C LFE Ls Rs
Sampling rate : 48.0 kHz
Frame rate : 31.250 FPS (1536 SPF)
Bit depth : 16 bits
Compression mode : Lossy
Stream size : 273 MiB (3%)
Title : MVO [К1] [email protected] 448 Кбіт/с
Language : Ukrainian
Service kind : Complete Main
Default : Yes
Forced : No

Audio #2
ID : 3
Format :
Format/Info : Digital Theater Systems
Codec ID : A_DTS
Duration : 1 h 25 min
Bit rate mode : Constant
Bit rate : 1 509 kb/s
Channel(s) : 6 channels
Channel layout : C L R Ls Rs LFE
Sampling rate : 48.0 kHz
Frame rate : 93.750 FPS (512 SPF)
Bit depth : 16 bits
Compression mode : Lossy
Stream size : 919 MiB (9%)
Title : [Оригінал] 5.1 @ 1509 Кбіт/с
Language : English
Default : No
Forced : No

Text
ID : 4
Format : UTF-8
Codec ID : S_TEXT/UTF8
Codec ID/Info : UTF-8 Plain Text
Duration : 1 h 20 min
Bit rate : 42 b/s
Count of elements : 846
Stream size : 25.3 KiB (0%)
Title : Повні
Language : English
Default : No
Forced : No

Menu
00:00:00.000 : en:Chapter 01
00:06:26.135 : en:Chapter 02
00:11:43.744 : en:Chapter 03
00:15:44.568 : en:Chapter 04
00:21:38.755 : en:Chapter 05
00:25:46.920 : en:Chapter 06
00:30:46.135 : en:Chapter 07
00:34:26.022 : en:Chapter 08
00:39:17.104 : en:Chapter 09
00:45:45.659 : en:Chapter 10
00:51:27.459 : en:Chapter 11
00:57:12.095 : en:Chapter 12
01:00:32.211 : en:Chapter 13
01:06:16.973 : en:Chapter 14
01:09:09.854 : en:Chapter 15
01:14:24.877 : en:Chapter 16
Скріншоти








Джерело:


 Трекер:    Зареєстрований   

Завантажити / скачати фільм українською



відео для новачків



 Зареєстрований:   2020-05-12 03:17
 Розмір:   9.68 GB 
 Оцінка фільму:   10/10 (Голосів: 1)
   
Інші релізи
Ваш часовий пояс: GMT + 2 Години

Нова тема   Відповісти