Будиночок / The Lodge (2019) 1080p Eng | Sub Ukr/Eng

Нові коментарі

Нова тема   Відповісти
Останній раз роздавалося kruchenik (2020-12-05)
Автор Повідомлення
Anonymous 







2020-05-12 00:05  
Будиночок / The Lodge (2019) 1080p Eng | Sub Ukr/Eng


Альтернативні постери:

Будиночок / The Lodge (2019) 1080p Eng | Sub Ukr/Eng
Будиночок / The Lodge (2019) 1080p Eng | Sub Ukr/Eng
Будиночок / The Lodge (2019) 1080p Eng | Sub Ukr/Eng
Будиночок / The Lodge (2019) 1080p Eng | Sub Ukr/Eng




Жанр: драма, трилер, жахи
Країна: Велика Британія, Канада, США



Кінокомпанія: FilmNation Entertainment, Hammer Films
Режисери: Северін Фіала / Severin Fiala, Вероніка Франц / Veronika Franz
Сценаристи: Серджіо Каші / Sergio Casci, Северін Фіала / Severin Fial, Вероніка Франц / Veronika Franz
Композитори: Денні Бенсі, Сондер Юрріаанс
Актори: Райлі Кіо / Riley Keough, Джейден Ліберер / Jaeden Martell, Лія МакГ'ю / Lia McHugh, Річард Армітейдж / Richard Armitage, Алісія Сільверстоун / Alicia Silverstone, Ребекка Фолкенберрі / Rebecca Faulkenberry, Кетлин Веллс / Katelyn Wells, Денні Кіо / Danny Keough, Лола Рейд / Lola Reid та інші.

Сюжет:
Дівчина Ґрейс і двоє її пасинків опиняються заблокованими у віддаленому сімейному зимовому будиночку через снігову бурю. Там їх починають тероризувати темні сили та демони минулого...

Рейтинг MPAA: R - особам до 17 років обов'язкова присутність батьків або дорослого опікуна
Вікова категорія: 16+

Тривалість: 01:48:17
Якість: 1080p
Відео:
Кодек:
Розмір кадру: 1920 x 1036
Бітрейт: 14.0 Мбіт/с

Аудіо:
Мова: англійська
Переклад: Оригінал
Кодек: 5.1
Бітрейт: 1509 Кбіт/с

Субтитри #1:
Мова: українська | Повні | (посилання на OpenSubtitles)
Переклад: офіційний, Всеволод Іващенк
Тип: програмні (м'які)
Формат: *.srt

Субтитри #2-3:
Мова: англійська | Повні, SDH
Тип: програмні (м'які)
Формат: *.srt

Info


General
Unique ID : 84524894167196719116977425793120623646 (0x3F96E7086C519E3E01184B26C1F25C1E)
Format :
Format version : Version 4
File size : 11.7 GiB
Duration : 1 h 48 min
Overall bit rate : 15.5 Mb/s
Movie name : The Lodge (2019) 1080p [Eng][UkrEng] [Hurtom]
Encoded date : UTC 2020-05-11 18:40:15
Writing application : v46.0.0 ('No Deeper Escape') 64-bit
Writing library : libebml v1.3.10 + v1.5.2
Attachments : poster_ukr.jpg / poster_eng1.jpg / poster_eng2.jpg

Video
ID : 1
Format : AVC
Format/Info : Advanced Video Codec
Format profile : [email protected]
Format settings : CABAC / 4 Ref Frames
Format settings, CABAC : Yes
Format settings, Reference fra : 4 frames
Codec ID : V_MPEG4/ISO/AVC
Duration : 1 h 48 min
Bit rate : 14.0 Mb/s
Width : 1 920 pixels
Height : 1 036 pixels
Display aspect ratio : 1.85:1
Frame rate mode : Constant
Frame rate : 23.976 (24000/1001) FPS
Color space : YUV
Chroma subsampling : 4:2:0
Bit depth : 8 bits
Scan type : Progressive
Bits/(Pixel*Frame) : 0.294
Stream size : 10.6 GiB (90%)
Title : The Lodge (2019) 1080p
Writing library : core 157 r2935 545de2f
Encoding settings : cabac=1 / ref=4 / deblock=1:-3:-3 / analyse=0x3:0x133 / me=umh / subme=10 / psy=1 / psy_rd=1.00:0.15 / mixed_ref=1 / me_range=24 / chroma_me=1 / trellis=2 / 8x8dct=1 / cqm=0 / deadzone=21,11 / fast_pskip=0 / chroma_qp_offset=-3 / threads=18 / lookahead_threads=3 / sliced_threads=0 / nr=0 / decimate=1 / interlaced=0 / bluray_compat=0 / constrained_intra=0 / bframes=8 / b_pyramid=2 / b_adapt=2 / b_bias=0 / direct=3 / weightb=1 / open_gop=0 / weightp=2 / keyint=240 / keyint_min=24 / scenecut=40 / intra_refresh=0 / rc_lookahead=60 / rc=2pass / mbtree=1 / bitrate=14000 / ratetol=1.0 / qcomp=0.60 / qpmin=0 / qpmax=69 / qpstep=4 / cplxblur=20.0 / qblur=0.5 / vbv_maxrate=62500 / vbv_bufsize=78125 / nal_hrd=none / filler=0 / ip_ratio=1.40 / aq=1:1.00
Language : English
Default : Yes
Forced : No
Color range : Limited
Color primaries : BT.709
Transfer characteristics : BT.709
Matrix coefficients : BT.709

Audio
ID : 2
Format :
Format/Info : Digital Theater Systems
Codec ID : A_DTS
Duration : 1 h 48 min
Bit rate mode : Constant
Bit rate : 1 509 kb/s
Channel(s) : 6 channels
Channel layout : C L R Ls Rs LFE
Sampling rate : 48.0 kHz
Frame rate : 93.750 FPS (512 SPF)
Bit depth : 24 bits
Compression mode : Lossy
Stream size : 1.14 GiB (10%)
Title : [Оригінал] 5.1 @ 1509 Кбіт/с
Language : English
Default : Yes
Forced : No

Text #1
ID : 3
Format : UTF-8
Codec ID : S_TEXT/UTF8
Codec ID/Info : UTF-8 Plain Text
Duration : 1 h 46 min
Bit rate : 44 b/s
Count of elements : 773
Stream size : 35.0 KiB (0%)
Title : Повні
Language : Ukrainian
Default : Yes
Forced : No

Text #2
ID : 4
Format : UTF-8
Codec ID : S_TEXT/UTF8
Codec ID/Info : UTF-8 Plain Text
Duration : 1 h 40 min
Bit rate : 28 b/s
Count of elements : 879
Stream size : 20.7 KiB (0%)
Title : English-SRT
Language : English
Default : No
Forced : No

Text #3
ID : 5
Format : PGS
Codec ID : S_HDMV/PGS
Codec ID/Info : Picture based subtitle format used on BDs/HD-DVDs
Duration : 1 h 48 min
Bit rate : 15.9 kb/s
Count of elements : 2522
Stream size : 12.3 MiB (0%)
Title : English-PGS
Language : English
Default : No
Forced : No

Menu
00:00:00.000 : :Chapter 1
00:12:07.894 : :Chapter 2
00:23:59.063 : :Chapter 3
00:35:26.875 : :Chapter 4
00:47:47.490 : :Chapter 5
00:59:46.875 : :Chapter 6
01:17:27.893 : :Chapter 7
01:42:01.032 : :Chapter 8
Скріншоти










Джерело: &


 Трекер:    Зареєстрований   

Завантажити / скачати фільм українською



відео для новачків



 Зареєстрований:   2020-05-12 00:05
 Розмір:   11.75 GB 
 Оцінка фільму:   5.5/10 (Голосів: 2)
   
Інші релізи
   Будиночок / The Lodge (2019) 720p Ukr/Eng | sub Ukr/Eng igor911  7 / 0   3.94 GB   2020-11-02 08:52 
   Будиночок / The Lodge (2019) AVC Ukr/Eng | sub Eng Arsenfpu  10 / 0   2.1 GB   2020-11-02 00:54 
igor911 
Модератор відео


З нами з: 18.01.08
Востаннє: 05.12.20
Повідомлень: 15094

2020-05-12 07:27  
Постер має бути до 200 кб (макс. 400 кб), тут 1,6 Мб - треба замінити.
Ваш часовий пояс: GMT + 2 Години

Нова тема   Відповісти