Віртуальна революція / Virtual Revolution (2016) AVC Ukr/Eng

Нові коментарі

Нова тема   Відповісти
Автор Повідомлення
Arsenfpu 
Відео Гуртом - фільмокрай
Відео Гуртом - фільмокрай


З нами з: 30.04.09
Востаннє: 10.07.20
Повідомлень: 7049

2020-05-11 23:57  
Віртуальна революція / Virtual Revolution (2016) AVC Ukr/Eng

Віртуальна революція / Virtual Revolution (2016) AVC Ukr/Eng


Жанр: пригодницький, кримінальний, фантастика
Країна: США, Канада, Франція



Кінокомпанія: Lidderdalei Productions, Virtual Revolution
Режисер: Гі-Роже Дювер'є
Актори: Майк Допуд, Джейн Бедлер, Йохен Хаегеле, Максимильен Пуллен, Кая Блоксейж, Петра Сіландер, Ніколас Ван Беверен, Д. Елі Хаддад, Емільен Де Фалько, Ерік Кайлі

Сюжет:
Париж, 2047. Велика частина населення проводить час в мережі, підключені до віртуального світу, їм плювати на реальність. Таємний агент, Неш, який працює на одну з мультинаціональних корпорацій, що стоять за віртуальними світами, вистежує терористів, що загрожують цій системі.


Тривалість: 01:32:36
Якість:
Відео:
кодек:
розмір кадру: 1024 х 432
бітрейт: 2 200 кб/с

Аудіо # 1:
мова: українська
переклад: багатоголосий закадровий
кодек: 2.0
бітрейт: 192 кб/с

Аудіо # 2:
мова: англійська
переклад: оригінал
кодек: 2.0
бітрейт: 192 кб/с
Скріншоти














Про файл
General
Unique ID : 196937096361712427650177727984456040724 (0x9428B481B84FEC7C18102A574CEE0114)
Complete name : C:\Virtual Revolution (2016) [Ukr,Eng] AVC [Hurtom].
Format :
Format version : Version 4 / Version 2
File size : 1.67 GiB
Duration : 1 h 32 min
Overall bit rate : 2 586 kb/s
Movie name : Віртуальна революція / Virtual Revolution (2016)
Encoded date : UTC 2020-05-19 03:57:25
Writing application : v21.0.0 ('Tardigrades Will Inherit The Earth') 32-bit
Writing library : libebml v1.3.5 + v1.4.8
Cover : Yes
Attachments : cover.jpg

Video
ID : 1
Format : AVC
Format/Info : Advanced Video Codec
Format profile : [email protected]
Format settings, CABAC : Yes
Format settings, ReFrames : 4 frames
Codec ID : V_MPEG4/ISO/AVC
Duration : 1 h 32 min
Bit rate : 2 200 kb/s
Width : 1 024 pixels
Height : 432 pixels
Display aspect ratio : 2.40:1
Frame rate mode : Constant
Frame rate : 25.000 FPS
Color space : YUV
Chroma subsampling : 4:2:0
Bit depth : 8 bits
Scan type : Progressive
Bits/(Pixel*Frame) : 0.199
Stream size : 1.42 GiB (85%)
Writing library : core 157 r2935 545de2f
Encoding settings : cabac=1 / ref=3 / deblock=1:-1:-1 / analyse=0x3:0x113 / me=hex / subme=7 / psy=1 / psy_rd=1.00:0.15 / mixed_ref=1 / me_range=16 / chroma_me=1 / trellis=1 / 8x8dct=1 / cqm=0 / deadzone=21,11 / fast_pskip=1 / chroma_qp_offset=-3 / threads=12 / lookahead_threads=2 / sliced_threads=0 / nr=0 / decimate=1 / interlaced=0 / bluray_compat=0 / constrained_intra=0 / bframes=3 / b_pyramid=2 / b_adapt=1 / b_bias=0 / direct=1 / weightb=1 / open_gop=0 / weightp=2 / keyint=250 / keyint_min=25 / scenecut=40 / intra_refresh=0 / rc_lookahead=40 / rc=2pass / mbtree=1 / bitrate=2200 / ratetol=1.0 / qcomp=0.60 / qpmin=0 / qpmax=69 / qpstep=4 / cplxblur=20.0 / qblur=0.5 / ip_ratio=1.40 / aq=1:1.00
Default : Yes
Forced : No

Audio #1
ID : 2
Format : AC-3
Format/Info : Audio Coding 3
Mode extension : CM (complete main)
Format settings, Endianness : Big
Codec ID : A_AC3
Duration : 1 h 32 min
Bit rate mode : Constant
Bit rate : 192 kb/s
Channel(s) : 2 channels
Channel positions : Front: L R
Sampling rate : 48.0 kHz
Frame rate : 31.250 FPS (1536 spf)
Compression mode : Lossy
Stream size : 127 MiB (7%)
Title : 2+2
Language : Ukrainian
Default : Yes
Forced : Yes

Audio #2
ID : 3
Format : AC-3
Format/Info : Audio Coding 3
Mode extension : CM (complete main)
Format settings, Endianness : Big
Codec ID : A_AC3
Duration : 1 h 32 min
Bit rate mode : Constant
Bit rate : 192 kb/s
Channel(s) : 2 channels
Channel positions : Front: L R
Sampling rate : 48.0 kHz
Frame rate : 31.250 FPS (1536 spf)
Compression mode : Lossy
Stream size : 127 MiB (7%)
Language : English
Default : No
Forced : No
Джерело:
За запис з ТБ дякую пну Bohdan237
За постер дякую пану alexander_bortnyk
Особиста оцінка: не дивився


 Трекер:    Зареєстрований   

Завантажити / скачати фільм українською



відео для новачків



 Зареєстрований:   2020-05-19 07:20
 Розмір:   1.67 GB 
 Оцінка фільму:   8.1/10 (Голосів: 24)
   
bot 
робот


З нами з: 30.09.07
Востаннє: 26.05.05
Повідомлень: 25026

2020-05-19 07:20  
Тему перенесено з Анонси релізів до форуму Фільми


Arsenfpu

kuts-vv 
VIP


З нами з: 11.12.11
Востаннє: 08.07.20
Повідомлень: 312

2020-05-20 21:43  
Нічого так. Досить стильний. Ну і філософія є, і екшен. Не скажу, що 10, але 7 - 8 цілком може бути.
memememe 
Новенький


З нами з: 05.11.17
Востаннє: 09.07.20
Повідомлень: 7

2020-05-22 20:38  
Люди, ви подуріли дивитись таке лайно ?
Arsen4uk 
Новенький


З нами з: 08.12.11
Востаннє: 06.07.20
Повідомлень: 24

2020-05-23 12:41  
.. тема з віртуальними світами не нова, але деяку проблемну крайність фільм в кінці розкриває)
Великих бюджетів він явно не мав, тож якщо не сприймаєте плоскі постановки ..фільм не для вас😅
В свій час мене сильно вразив VR, тому хотілось подивитись на чергове намагання зфантазувати апокаліптичне майбутнє людства, яке загрузло у віртуальній реальності)
6/10

Ваш часовий пояс: GMT + 2 Години

Нова тема   Відповісти