Перемагаючи час / Hours (2013) AVC Ukr/Eng | sub Eng

Нові коментарі

Нова тема   Відповісти
Автор Повідомлення
Arsenfpu 
Відео Гуртом - фільмокрай
Відео Гуртом - фільмокрай


З нами з: 30.04.09
Востаннє: 02.07.20
Повідомлень: 7028

2020-05-11 23:43  
Перемагаючи час / Hours (2013) AVC Ukr/Eng | sub Eng

Перемагаючи час / Hours (2013) AVC Ukr/Eng | sub Eng


Жанр: драма, трилер
Країна: США



Кінокомпанія: The Safran Company, PalmStar Media, Hours Capital
Режисер: Ерік Хайссерер
Актори: Пол Уокер, Дженезис Родрігез, Ненсі Нейв, Шейн Якобсен, Наталія Ярожік, ТіДжей Хассан, Лена Кларк, Кеша Баллард, Йохансен Майлс, Джудд Лорманд ...

Сюжет:
Новий Орлеан. Серпень 2005-го. Смертоносна «Катріна» змітає все на своєму шляху. Батько щосили намагається врятувати свою дочку. Він розуміє, що впоратися зі стихією, зупинити нещадний ураган не в його силах. На порятунок доньки залишаються лічені години ...


Тривалість: 01:36:59
Якість:
Відео:
кодек:
розмір кадру: 1 132 х 474
бітрейт: 2 323 кб/с

Аудіо # 1:
мова: українська
переклад: багатоголосий закадровий
кодек: 2.0
бітрейт: 192 кб/с

Аудіо # 2:
мова: англійська
переклад: оригінал
кодек: 2.0
бітрейт: 192 кб/с

Субтитри:
мова: англійська
тип: програмні (м'які)
формат: *.srt
Скріншоти














Про файл
General
Unique ID : 256800425404091665116338564490410512034 (0xC131F680BA02A20DBEF1C4BDFA6ACEA2)
Complete name : C:\Hours (2013) [Ukr,Eng] AVC [Hurtom].
Format :
Format version : Version 4 / Version 2
File size : 1.83 GiB
Duration : 1 h 36 min
Overall bit rate : 2 699 kb/s
Movie name : Перемагаючи час / Hours (2013)
Encoded date : UTC 2020-05-19 00:59:28
Writing application : v21.0.0 ('Tardigrades Will Inherit The Earth') 32-bit
Writing library : libebml v1.3.5 + v1.4.8
Cover : Yes
Attachments : cover.jpg

Video
ID : 1
Format : AVC
Format/Info : Advanced Video Codec
Format profile : [email protected]
Format settings, CABAC : Yes
Format settings, ReFrames : 11 frames
Codec ID : V_MPEG4/ISO/AVC
Duration : 1 h 36 min
Bit rate : 2 323 kb/s
Width : 1 132 pixels
Height : 474 pixels
Display aspect ratio : 2.40:1
Frame rate mode : Constant
Frame rate : 23.976 (24000/1001) FPS
Color space : YUV
Chroma subsampling : 4:2:0
Bit depth : 8 bits
Scan type : Progressive
Bits/(Pixel*Frame) : 0.181
Stream size : 1.57 GiB (86%)
Writing library : core 142 r2431 ac76440
Encoding settings : cabac=1 / ref=11 / deblock=1:-3:-2 / analyse=0x3:0x133 / me=umh / subme=11 / psy=1 / psy_rd=1.05:0.18 / mixed_ref=1 / me_range=48 / chroma_me=1 / trellis=2 / 8x8dct=1 / cqm=0 / deadzone=21,11 / fast_pskip=0 / chroma_qp_offset=-3 / threads=12 / lookahead_threads=3 / sliced_threads=0 / nr=0 / decimate=0 / interlaced=0 / bluray_compat=0 / constrained_intra=0 / bframes=12 / b_pyramid=2 / b_adapt=2 / b_bias=0 / direct=3 / weightb=1 / open_gop=0 / weightp=2 / keyint=240 / keyint_min=23 / scenecut=40 / intra_refresh=0 / rc_lookahead=80 / rc=2pass / mbtree=0 / bitrate=2323 / ratetol=1.0 / qcomp=0.70 / qpmin=0 / qpmax=69 / qpstep=4 / cplxblur=20.0 / qblur=0.5 / vbv_maxrate=25000 / vbv_bufsize=30000 / nal_hrd=none / filler=0 / ip_ratio=1.20 / pb_ratio=1.10 / aq=2:0.80
Default : Yes
Forced : No

Audio #1
ID : 2
Format : AC-3
Format/Info : Audio Coding 3
Mode extension : CM (complete main)
Format settings, Endianness : Big
Codec ID : A_AC3
Duration : 1 h 36 min
Bit rate mode : Constant
Bit rate : 192 kb/s
Channel(s) : 2 channels
Channel positions : Front: L R
Sampling rate : 48.0 kHz
Frame rate : 31.250 FPS (1536 spf)
Compression mode : Lossy
Stream size : 133 MiB (7%)
Language : Ukrainian
Default : Yes
Forced : Yes

Audio #2
ID : 3
Format : AC-3
Format/Info : Audio Coding 3
Mode extension : CM (complete main)
Format settings, Endianness : Big
Codec ID : A_AC3
Duration : 1 h 36 min
Bit rate mode : Constant
Bit rate : 192 kb/s
Channel(s) : 2 channels
Channel positions : Front: L R
Sampling rate : 48.0 kHz
Frame rate : 31.250 FPS (1536 spf)
Compression mode : Lossy
Stream size : 133 MiB (7%)
Language : English
Default : No
Forced : No

Text
ID : 4
Format : UTF-8
Codec ID : S_TEXT/UTF8
Codec ID/Info : UTF-8 Plain Text
Duration : 1 h 30 min
Bit rate : 39 b/s
Count of elements : 844
Stream size : 26.0 KiB (0%)
Language : English
Default : No
Forced : No

Menu
00:00:00.000 : :Chapter 1
00:07:04.591 : :Chapter 2
00:15:39.230 : :Chapter 3
00:23:37.166 : :Chapter 4
00:32:11.429 : :Chapter 5
00:40:26.424 : :Chapter 6
00:49:04.525 : :Chapter 7
00:56:11.368 : :Chapter 8
01:04:57.268 : :Chapter 9
01:14:31.926 : :Chapter 10
01:23:40.432 : :Chapter 11
01:32:41.139 : :Chapter 12
Джерело:
За запис з ТБ дякую пану Bohdan237
За постер дякую пану alexander_bortnyk
Особиста оцінка: не дивився


 Трекер:    Зареєстрований   

Завантажити / скачати фільм українською



відео для новачків



 Зареєстрований:   2020-05-19 04:16
 Розмір:   1.83 GB 
 Оцінка фільму:   9.3/10 (Голосів: 17)
   
bot 
робот


З нами з: 30.09.07
Востаннє: 26.05.05
Повідомлень: 24915

2020-05-19 04:16  
Тему перенесено з Анонси релізів до форуму Фільми


Arsenfpu

sinpavla 
Свій


З нами з: 15.06.12
Востаннє: 02.07.20
Повідомлень: 131

2020-05-20 06:38  
давно не бачив такого гарного кіна.радію!
kuts-vv 
VIP


З нами з: 11.12.11
Востаннє: 30.06.20
Повідомлень: 312

2020-05-22 11:52  
Ну, нічого так. Досить цікавий.
Ваш часовий пояс: GMT + 2 Години

Нова тема   Відповісти