Апгрейд / Upgrade (2018) Remux 1080p Ukr/Eng | Sub Ukr/Eng

Нові коментарі

Нова тема   Відповісти
Автор Повідомлення
MakRA 
VIP


З нами з: 11.11.18
Востаннє: 20.09.20
Повідомлень: 1119

2020-05-11 10:31  
Апгрейд / Upgrade (2018) Remux 1080p Ukr/Eng | Sub Ukr/Eng


«Не людина. Не машина. Більше...»

Альтернативний українізований постер:

Жанр: екшн, фантастика, жахи
Країна: США , Австралія



Кінокомпанія: Blumhouse Productions, Goalpost Pictures
Режисер: Лі Воннел [Leigh Whannell]
Актори: Логан Маршалл [Logan Marshall-Green], Бетті Габріель [Betty Gabriel], Гаррісон Гілбертсон [Harrison Gilbertson], Мелані Валлейо [Melanie Vallejo], Лінда Кроппер [Linda Cropper], Бенедікт Гарді [Benedict Hardie], Саймон Мейден [Simon Maiden], Крістофер Кірбі [Christopher Kirby], Клейтон Джейкобсон [Clayton Jacobson]

Сюжет:
Майбутнє для людей стало багатим на технології і відкриття. Грей, незважаючи на нові можливості людства, продовжує займатися ремонтом старих автомобілів. Повертаючись від чергового клієнта, герой разом зі своєю дружиною потрапляє в автокатастрофу, після якої зміг вижити тільки Грей. Паралізованому хлопцеві клієнт пропонує поставити експериментальний імплант Stem, який повинен відновити рухливість Грея.
Нагороди та номінації:

2018 Премія Австралійської академії кінематографа і телебачення
Номінація
Найкращий оригінальний сценарій - Лі Воннелл
Найкраща оригінальна музика - Джед Палмер
Найкращий монтаж - Енді Кенні
Найкращий звук - П. К. Гукер, Вілл Файлс, Андрю Ремедж
Найкраща робота художника-постановника - Філісіті Ебботт, Кеті Шеррок
Найкращі візуальні ефекти або анімація - Джонатан Дірінг, Метт Делі, Анжело Сахін, Кейт Барно, Евар Бйарнсон
Найкращий грим - Кіара Тріподі, Леррі Ван Дуйговен

2018 Кінофестиваль у Сіджасі
Номінація
Найкращий фільм - Лі Воннелл

2018 South by Southwest
Нагорода
Нагорода глядачів - Лі Воннелл
Тривалість: 01:39:54
Якість: Remux 1080p
Відео:
кодек:
розмір кадру: 1920 х 1080
бітрейт: 34,6 Mб/с

Аудіо # 1:
мова: українська
переклад: двоголосий закадровий | BurtonJey & Artymko
кодек: 5.1
бітрейт: 448 кб/с

Аудіо # 2:
мова: англійська
переклад: оригінал
кодек: -HD MA 5.1
бітрейт: 3689 кб/с

Аудіо # 3:
мова: англійська
переклад: оригінал
кодек: 5.1
бітрейт: 448 кб/с

Субтитри # 1: (Full)
мова: українська
тип: програмні (м'які)
формат: *.srt
джерело: любительський переклад JoRi, GT (SubAutumn); редагування - igor911.
примітка: обережно, присутні матюки (небагато)

Субтитри # 2-3: (Full) | (SDH-Colored)
мова: англійська
тип: програмні (м'які)
формат: *.srt

Субтитри # 4: (Full)
мова: англійська
тип: пререндерні
формат: *.pgs

Збережено оригінальні розділи, як на Blu-ray.
Info
General
Unique ID : 53424074348487928502161863291451675196 (0x28311A3A6B14BCD2D684E6CEBE3F123C)
Complete name : M:\+ Фільми в HD\Upgrade (2018) Remux 1080p UkrEng Sub UkrEng [Hurtom].
Format :
Format version : Version 4
File size : 27.4 GiB
Duration : 1 h 39 min
Overall bit rate mode : Variable
Overall bit rate : 39.2 Mb/s
Movie name : Апгрейд / Upgrade (2018) Remux 1080p Ukr/Eng | Sub Ukr/Eng [Hurtom]
Encoded date : UTC 2020-05-11 18:07:37
Writing application : v44.0.0 ('Domino') 64-bit
Writing library : libebml v1.3.10 + v1.5.2
Cover : Yes
Attachments : cover.jpg

Video
ID : 1
Format : AVC
Format/Info : Advanced Video Codec
Format profile : [email protected]
Format settings : CABAC / 4 Ref Frames
Format settings, CABAC : Yes
Format settings, Reference : 4 frames
Codec ID : V_MPEG4/ISO/AVC
Duration : 1 h 39 min
Bit rate mode : Variable
Bit rate : 34.6 Mb/s
Maximum bit rate : 38.7 Mb/s
Width : 1 920 pixels
Height : 1 080 pixels
Display aspect ratio : 16:9
Frame rate mode : Constant
Frame rate : 23.976 (24000/1001) FPS
Color space : YUV
Chroma subsampling : 4:2:0
Bit depth : 8 bits
Scan type : Progressive
Bits/(Pixel*Frame) : 0.697
Stream size : 24.2 GiB (88%)
Title : Upgrade (2018) Remux 1080p Ukr/Eng | Sub Ukr/Eng [Hurtom]
Language : Ukrainian
Default : Yes
Forced : Yes

Audio #1
ID : 2
Format : AC-3
Format/Info : Audio Coding 3
Commercial name : Dolby Digital
Codec ID : A_AC3
Duration : 1 h 39 min
Bit rate mode : Constant
Bit rate : 448 kb/s
Channel(s) : 6 channels
Channel layout : L R C LFE Ls Rs
Sampling rate : 48.0 kHz
Frame rate : 31.250 FPS (1536 SPF)
Compression mode : Lossy
Stream size : 320 MiB (1%)
Title : DVO [UKR] 5.1 | BurtonJey & Artymko
Language : Ukrainian
Service kind : Complete Main
Default : Yes
Forced : Yes

Audio #2
ID : 3
Format : XLL
Format/Info : Digital Theater Systems
Commercial name : -HD Master Audio
Codec ID : A_DTS
Duration : 1 h 39 min
Bit rate mode : Variable
Bit rate : 3 689 kb/s
Channel(s) : 6 channels
Channel layout : C L R Ls Rs LFE
Sampling rate : 48.0 kHz
Frame rate : 93.750 FPS (512 SPF)
Bit depth : 24 bits
Compression mode : Lossless
Stream size : 2.57 GiB (9%)
Title : Original -HD MA 5.1
Language : English
Default : No
Forced : No

Audio #3
ID : 4
Format : AC-3
Format/Info : Audio Coding 3
Commercial name : Dolby Digital
Codec ID : A_AC3
Duration : 1 h 39 min
Bit rate mode : Constant
Bit rate : 448 kb/s
Channel(s) : 6 channels
Channel layout : L R C LFE Ls Rs
Sampling rate : 48.0 kHz
Frame rate : 31.250 FPS (1536 SPF)
Compression mode : Lossy
Stream size : 320 MiB (1%)
Title : Original 5.1
Language : English
Service kind : Complete Main
Default : No
Forced : No

Text #1
ID : 5
Format : UTF-8
Codec ID : S_TEXT/UTF8
Codec ID/Info : UTF-8 Plain Text
Duration : 1 h 33 min
Bit rate : 81 b/s
Count of elements : 1288
Stream size : 55.9 KiB (0%)
Title : Ukr (Full) SRT | SubAutumn
Language : Ukrainian
Default : No
Forced : No

Text #2
ID : 6
Format : UTF-8
Codec ID : S_TEXT/UTF8
Codec ID/Info : UTF-8 Plain Text
Duration : 1 h 32 min
Bit rate : 49 b/s
Count of elements : 1290
Stream size : 33.3 KiB (0%)
Title : Eng (Full) SRT
Language : English
Default : No
Forced : No

Text #3
ID : 7
Format : UTF-8
Codec ID : S_TEXT/UTF8
Codec ID/Info : UTF-8 Plain Text
Duration : 1 h 34 min
Bit rate : 91 b/s
Count of elements : 1326
Stream size : 63.6 KiB (0%)
Title : Eng (Full SDH-Colored) SRT
Language : English
Default : No
Forced : No

Text #4
ID : 8
Format : PGS
Muxing mode : zlib
Codec ID : S_HDMV/PGS
Codec ID/Info : Picture based subtitle format used on BDs/HD-DVDs
Duration : 1 h 32 min
Bit rate : 22.8 kb/s
Count of elements : 2580
Stream size : 15.0 MiB (0%)
Title : Eng (Full) PGS
Language : English
Default : No
Forced : No

Menu
00:00:00.000 : en:Розділ 01
00:05:38.295 : en:Розділ 02
00:09:04.918 : en:Розділ 03
00:15:26.759 : en:Розділ 04
00:18:42.703 : en:Розділ 05
00:21:43.634 : en:Розділ 06
00:28:37.382 : en:Розділ 07
00:34:42.621 : en:Розділ 08
00:41:17.056 : en:Розділ 09
00:47:55.621 : en:Розділ 10
00:51:14.528 : en:Розділ 11
00:56:58.456 : en:Розділ 12
01:01:34.565 : en:Розділ 13
01:05:22.168 : en:Розділ 14
01:09:10.938 : en:Розділ 15
01:16:13.193 : en:Розділ 16
01:20:17.103 : en:Розділ 17
01:25:41.927 : en:Розділ 18
01:31:45.247 : en:Розділ 19
01:33:57.631 : en:Розділ 20
Скріншоти
Джерело: &
Подяка за озвучення п. BurtonJey та п. Artymko; українські субтитри: переклад - п. JoRi, GT (SubAutumn), редагування - п. igor911.
Особиста оцінка: 10 - без зайвих вагань рекомендую всім!



Авторський реліз (завантажувати можна без реєстрації)
 Трекер:    Зареєстрований   

Завантажити / скачати фільм українською



відео для новачків



 Зареєстрований:   2020-05-11 23:03
 Розмір:   27.37 GB 
 Оцінка фільму:   9.3/10 (Голосів: 18)
   
Інші релізи
   Апгрейд / Upgrade (2018) 1080р H.265 Ukr/Eng | Sub Ukr/Eng -Star-Lord-  18 / 0   5.45 GB   2020-05-09 11:10 
   Апгрейд / Upgrade (2018) 1080р Ukr/Eng | sub Eng/Ukr BurtonJey  14 / 0   7.02 GB   2020-05-08 19:47 
   Апгрейд / Upgrade (2018) 720р Ukr/Eng | sub Ukr/Eng BurtonJey  10 / 0   5.04 GB   2020-05-08 19:25 
   Апгрейд / Upgrade (2018) BurtonJey  16 / 0   1.44 GB   2020-05-08 19:06 
   Апгрейд / Upgrade (2018) AVC Ukr/Eng | sub Ukr/Eng BurtonJey  47 / 0   2.35 GB   2020-05-08 18:45 
   Апгрейд / Upgrade (2018) Eng | sub Ukr >_stoneage_anonymous  4 / 1   1.38 GB   2018-12-18 15:00 
   Апгрейд (Стем) / Upgrade (2018) AVC Eng | Sub Ukr/Eng igor911  32 / 0   2.03 GB   2018-09-11 18:39 
bot 
робот


З нами з: 30.09.07
Востаннє: 26.05.05
Повідомлень: 25548

2020-05-11 10:31  
Тему перенесено з Фільми в HD до форуму Анонси релізів


MakRA

bot 
робот


З нами з: 30.09.07
Востаннє: 26.05.05
Повідомлень: 25548

2020-05-11 23:02  
Тему перенесено з Анонси релізів до форуму Фільми в HD


MakRA

GelioS_(UA) 
Свій


З нами з: 14.06.15
Востаннє: 20.09.20
Повідомлень: 64

2020-05-13 14:51  
Офігенний фільм - 10/10
16+

Ваш часовий пояс: GMT + 2 Години

Нова тема   Відповісти