Їжак Сонік / Sonic the Hedgehog (2020) UHD Remux 4K 2160 Ukr/Eng | Sub Ukr/Eng

Нові коментарі

Нова тема   Відповісти
Автор Повідомлення
Anonymous 







2020-05-11 03:12  


Їжак Сонік / Sonic the Hedgehog (2020) UHD Remux 4K 2160 Ukr/Eng | Sub Ukr/Eng



«Швидкість - його друге ім'я»



Їжак Сонік / Sonic the Hedgehog (2020) UHD Remux 4K 2160 Ukr/Eng | Sub Ukr/Eng



Альтернативні постери



Жанр: комедія, пригоди, сімейний, фантастика, екшн
Країна: США, Канада, Японія











Кінокомпанія: Paramount Pictures, Original Film
Режисер: Джефф Фавлер
Актори: Джим Керрі, Джеймс Марсден, Бен Шварц, Тіка Самптер, Ніл МакДонаф, Адам Паллі, Ліенн Лепп, Наташа Ротвелл, Лі Мадждуб, Френк Чарльз Тернер та інші.

Сюжет:
Одна далека та не схожа на Землю планета в небезпеці. Щоб її врятувати неймовірно швидкий, веселий і по-справжньому відважний їжак Сонік телепортувався до нашого рідного дому, а саме до США. Стрибок напруги після того, як енергійний їжак приземлився у нас, привів до зникнення електрики на всьому Північно-Західному узбережжі країни, що не пройшло повз увагу Пентагону. За Соніком уже почала полювання влада, і головний мисливець – доктор Роботник, який хоче захопити весь світ. Але першою людиною, що зустрілася їжаку, був Том Вачовськи. Це звичайний хлопець, який вирішив допомогти Соніку та не дати Роботнику здійснити свій жахливий план.



Тривалість: 01:38:53
Якість: UHD Remux 2160p


Відео:
кодек: H.265 (HEVC)
розмір кадру: 3840x2160
бітрейт: 59.5 Мб/с
бітова глибина: 10 біт
кольоровий простір: BT.2020 (HDR)

Аудіо # 1:
мова: українська
переклад: професійний дубльований | студія LeDoyen
кодек: 5.1
бітрейт: 384 кб/с
Інформація про дубляж
Перекладач: Катерина Щепковська
Режисер дубляжу: Ольга Фокіна
Звукорежисер: Станіслав Ногін
Координатор: Марина Булаковська
Ролі дублювали: Павло Скороходько, Микола Сирокваш, Антоніна Якушева, Павло Костіцин, Ніна Кастроф, Роман Молодій, Євген Малуха, Олександр Ігнатуша, Ігор Журбенко, Єгор Скороходько, Віталіна Біблів та інші.

Фільм надано компанією PARAMOUNT PICTURES, дубльовано студією LeDoyen на замовлення компанії B&H Film Distribution у 2020 році.
Аудіо # 2:
мова: англійська
переклад: оригінал
кодек: 5.1
бітрейт: 640 кб/с

Аудіо # 3:
мова: англійська
переклад: оригінал
кодек: TrueHD + Atmos 7.1
бітрейт: 4434 кб/с

Джерело озвучення:


Субтитри # 1 - 2:
мова: українська (форсовані, повні)
тип: програмні (м'які)
формат: *.srt

Субтитри # 3 - 4:
мова: англійська (повні, SDH)
тип: програмні (м'які)
формат: *.srt


Збережено оригінальні розділи, як на Blu-ray.

Info
Код:
General
Complete name                            : Sonic the Hedgehog (2020) UHD Remux 2160p [UKR_ENG] [Video_Hurtom].
Format                                   :
Format version                           : Version 4
File size                                : 44.9 GiB
Duration                                 : 1 h 38 min
Overall bit rate mode                    : Variable
Overall bit rate                         : 65.1 Mb/s
Movie name                               : Їжак Сонік / Sonic the Hedgehog (2020)
Encoded date                             : UTC 2020-05-10 23:31:47
Writing application                      : v30.1.0 ('Forever And More') 64-bit
Writing library                          : libebml v1.3.6 + v1.4.9
Cover                                    : Yes
Attachments                              : cover.jpg

Video
ID                                       : 1
Format                                   : HEVC
Format/Info                              : High Efficiency Video Coding
Commercial name                          : HDR10
Format profile                           : Main [email protected]@High
Codec ID                                 : V_MPEGH/ISO/HEVC
Duration                                 : 1 h 38 min
Bit rate                                 : 59.5 Mb/s
Width                                    : 3 840 pixels
Height                                   : 2 160 pixels
Display aspect ratio                     : 16:9
Frame rate mode                          : Constant
Frame rate                               : 23.976 (24000/1001) FPS
Color space                              : YUV
Chroma subsampling                       : 4:2:0 (Type 2)
Bit depth                                : 10 bits
Bits/(Pixel*Frame)                       : 0.299
Stream size                              : 41.1 GiB (92%)
Language                                 : English
Default                                  : Yes
Forced                                   : No
Color range                              : Limited
Color primaries                          : BT.2020
Transfer characteristics                 : PQ
Matrix coefficients                      : BT.2020 non-constant
Mastering display color primaries        : Display P3
Mastering display luminance              : min: 0.0050 cd/m2, max: 4000 cd/m2
Maximum Content Light Level              : 698 cd/m2
Maximum Frame-Average Light Level        : 204 cd/m2

Audio #1
ID                                       : 2
Format                                   : AC-3
Format/Info                              : Audio Coding 3
Commercial name                          : Dolby Digital
Codec ID                                 : A_AC3
Duration                                 : 1 h 38 min
Bit rate mode                            : Constant
Bit rate                                 : 384 kb/s
Channel(s)                               : 6 channels
Channel layout                           : L R C LFE Ls Rs
Sampling rate                            : 48.0 kHz
Frame rate                               : 31.250 FPS (1536 SPF)
Bit depth                                : 16 bits
Compression mode                         : Lossy
Stream size                              : 272 MiB (1%)
Title                                    : , 5.1, 384 Kbps
Language                                 : Ukrainian
Service kind                             : Complete Main
Default                                  : Yes
Forced                                   : No

Audio #2
ID                                       : 3
Format                                   : AC-3
Format/Info                              : Audio Coding 3
Commercial name                          : Dolby Digital
Codec ID                                 : A_AC3
Duration                                 : 1 h 38 min
Bit rate mode                            : Constant
Bit rate                                 : 640 kb/s
Channel(s)                               : 6 channels
Channel layout                           : L R C LFE Ls Rs
Sampling rate                            : 48.0 kHz
Frame rate                               : 31.250 FPS (1536 SPF)
Bit depth                                : 16 bits
Compression mode                         : Lossy
Stream size                              : 453 MiB (1%)
Title                                    : , 5.1, 640 Kbps
Language                                 : English
Service kind                             : Complete Main
Default                                  : No
Forced                                   : No

Audio #3
ID                                       : 4
Format                                   : MLP FBA 16-ch
Format/Info                              : Meridian Lossless Packing FBA with 16-channel presentation
Commercial name                          : Dolby TrueHD with Dolby Atmos
Codec ID                                 : A_TRUEHD
Duration                                 : 1 h 38 min
Bit rate mode                            : Variable
Bit rate                                 : 4 434 kb/s
Maximum bit rate                         : 7 872 kb/s
Channel(s)                               : 8 channels
Channel layout                           : L R C LFE Ls Rs Lb Rb
Sampling rate                            : 48.0 kHz
Frame rate                               : 1 200.000 FPS (40 SPF)
Compression mode                         : Lossless
Stream size                              : 3.06 GiB (7%)
Title                                    : TrueHD, 7.1, 4434 Kbps
Language                                 : English
Default                                  : No
Forced                                   : No
Number of dynamic objects                : 11
Bed channel count                        : 1 channel
Bed channel configuration                : LFE

Text #1
ID                                       : 5
Format                                   : UTF-8
Codec ID                                 : S_TEXT/UTF8
Codec ID/Info                            : UTF-8 Plain Text
Duration                                 : 1 h 35 min
Bit rate                                 : 1 b/s
Count of elements                        : 29
Stream size                              : 1.12 KiB (0%)
Title                                    : Forced
Language                                 : Ukrainian
Default                                  : Yes
Forced                                   : No

Text #2
ID                                       : 6
Format                                   : UTF-8
Codec ID                                 : S_TEXT/UTF8
Codec ID/Info                            : UTF-8 Plain Text
Duration                                 : 1 h 37 min
Bit rate                                 : 89 b/s
Count of elements                        : 1313
Stream size                              : 64.0 KiB (0%)
Title                                    : Full
Language                                 : Ukrainian
Default                                  : No
Forced                                   : No

Text #3
ID                                       : 7
Format                                   : UTF-8
Codec ID                                 : S_TEXT/UTF8
Codec ID/Info                            : UTF-8 Plain Text
Duration                                 : 1 h 31 min
Bit rate                                 : 66 b/s
Count of elements                        : 1415
Stream size                              : 44.3 KiB (0%)
Title                                    : Full
Language                                 : English
Default                                  : No
Forced                                   : No

Text #4
ID                                       : 8
Format                                   : UTF-8
Codec ID                                 : S_TEXT/UTF8
Codec ID/Info                            : UTF-8 Plain Text
Duration                                 : 1 h 32 min
Bit rate                                 : 73 b/s
Count of elements                        : 1661
Stream size                              : 49.6 KiB (0%)
Title                                    : SDH
Language                                 : English
Default                                  : No
Forced                                   : No

Menu
00:00:00.000                             : en:Chapter 1
00:03:51.857                             : en:Chapter 2
00:09:32.989                             : en:Chapter 3
00:12:45.974                             : en:Chapter 4
00:18:09.422                             : en:Chapter 5
00:22:20.339                             : en:Chapter 6
00:27:33.694                             : en:Chapter 7
00:35:09.316                             : en:Chapter 8
00:41:37.328                             : en:Chapter 9
00:51:24.623                             : en:Chapter 10
01:01:04.828                             : en:Chapter 11
01:04:38.208                             : en:Chapter 12
01:10:20.341                             : en:Chapter 13
01:18:54.021                             : en:Chapter 14
01:25:38.717                             : en:Chapter 15
01:30:27.297                             : en:Chapter 16

Скріншоти


Джерело: & &
Особиста оцінка: 8 - мені сподобалося
Подяка п.trofum911 за наданий 5.1 звук та п.tilda4334 за інформацію про дубляж.





Увага! Перед завантаженням переконайтесь, що ваш пристрій відтворення (та/або ПЗ) підтримує H.265 (HEVC)


Золотий реліз (завантажене не впливає на рейтинг)
 Трекер:    Зареєстрований   

Завантажити / скачати фільм українською



відео для новачків



 Зареєстрований:   2020-05-11 03:12
 Розмір:   44.93 GB 
 Оцінка фільму:   9.3/10 (Голосів: 11)
   
Інші релізи
trofum911 
Поважний учасник


З нами з: 31.01.12
Востаннє: 28.09.20
Повідомлень: 177

2020-05-15 20:31  
Величезне Вам дякую!
Фільм супер, як і сьогоднішній вечір.

Ваш часовий пояс: GMT + 2 Години

Нова тема   Відповісти