Астрал: Частина 3 / Insidious: Chapter 3 (2015) 1080p Eng | Sub Ukr/Eng

Нові коментарі

Нова тема   Відповісти
Останній раз роздавалося coltojkee (2020-12-04)
Автор Повідомлення
Anonymous 







2020-05-11 01:08  
Астрал: Частина 3 / Insidious: Chapter 3 (2015) 1080p Eng | Sub Ukr/Eng


Оригінальний постер:

Астрал: Частина 3 / Insidious: Chapter 3 (2015) 1080p Eng | Sub Ukr/Eng




Жанр: жахи, трилер
Країна: Велика Британія, Франція



Кінокомпанія: Gramercy Pictures (I), Stage 6 Films, Entertainment One
Режисер та сценарист: Лі Воннелл
Композитор: Джозеф Бішара
Актори: Дермот Малруні, Стефані Скотт, Енґус Семпсон, Лі Воннелл, Лін Шей, Тейт Берні, Майкл Рід Маккей, Стів Култер, Гейлі Кійоко, Корбетт Так, Том Фіцпатрік, Том Ґалоп, Джеріс Пойндекстер
Бюджет: 10 000 000 $

Сюжет:
Сюжет третього фільму франшизи, на відміну від двох попередніх, не стосується сім'ї Ламберт. Головна героїня – дівчина Квінн лежить удома з переломом ноги. Романтика, яка виникла між нею і сусідом раптово переривається, коли Квінн розуміє, що в їх відносинах бере участь третя сторона, невідома їй сила. Зустріч з надприродним спонукає сім'ю звернутися по допомогу до екстрасенса Елліс Рейнер.

Тривалість: 01:37:21
Якість: 1080p
Відео:
Кодек:
Розмір кадру: 1920 х 804
Бітрейт: 12900 Кбіт/с

Аудіо 2:
Мова: англійська
Переклад: Оригінал
Кодек: 5.1
Бітрейт: 1509 Кбіт/с

Субтитри #1-2:
Мова: українська | Повні, Форсовані

Тип: програмні (м'які)
Формат: *.srt

Субтитри #3-5:
Мова: англійська | Full, SDH, SDH Colored
Тип: програмні (м'які)
Формат: *.srt

Info


General
Unique ID : 311478269535585347689693851849398552387 (0xEA54885A99AA8BFEA6DDD5DDFA2A0743)
Format :
Format version : Version 4
File size : 9.79 GiB
Duration : 1 h 37 min
Overall bit rate : 14.4 Mb/s
Movie name : Insidious Chapter 3 (2015) 1080p [Ukr][SubUkrEng] [Hurtom]
Encoded date : UTC 2020-05-10 22:30:14
Writing application : v46.0.0 ('No Deeper Escape') 64-bit
Writing library : libebml v1.3.10 + v1.5.2
Attachments : poster_ukr1.jpg / poster_eng1.jpg

Video
ID : 1
Format : AVC
Format/Info : Advanced Video Codec
Format profile : [email protected]
Format settings : CABAC / 5 Ref Frames
Format settings, CABAC : Yes
Format settings, Reference fra : 5 frames
Codec ID : V_MPEG4/ISO/AVC
Duration : 1 h 37 min
Bit rate : 12.9 Mb/s
Width : 1 920 pixels
Height : 804 pixels
Display aspect ratio : 2.40:1
Frame rate mode : Constant
Frame rate : 23.976 (24000/1001) FPS
Color space : YUV
Chroma subsampling : 4:2:0
Bit depth : 8 bits
Scan type : Progressive
Bits/(Pixel*Frame) : 0.348
Stream size : 8.76 GiB (89%)
Title : Insidious Chapter 3 (2015) 1080p
Writing library : core 157 r2935 545de2f
Encoding settings : cabac=1 / ref=5 / deblock=1:-3:-3 / analyse=0x3:0x133 / me=umh / subme=10 / psy=1 / psy_rd=1.00:0.15 / mixed_ref=1 / me_range=24 / chroma_me=1 / trellis=2 / 8x8dct=1 / cqm=0 / deadzone=21,11 / fast_pskip=0 / chroma_qp_offset=-3 / threads=18 / lookahead_threads=3 / sliced_threads=0 / nr=0 / decimate=1 / interlaced=0 / bluray_compat=0 / constrained_intra=0 / bframes=8 / b_pyramid=2 / b_adapt=2 / b_bias=0 / direct=3 / weightb=1 / open_gop=0 / weightp=2 / keyint=240 / keyint_min=24 / scenecut=40 / intra_refresh=0 / rc_lookahead=60 / rc=crf / mbtree=1 / crf=11.5 / qcomp=0.60 / qpmin=0 / qpmax=69 / qpstep=4 / vbv_maxrate=62500 / vbv_bufsize=78125 / crf_max=0.0 / nal_hrd=none / filler=0 / ip_ratio=1.40 / aq=1:1.00
Language : English
Default : Yes
Forced : No
Color range : Limited
Color primaries : BT.709
Transfer characteristics : BT.709
Matrix coefficients : BT.709

Audio
ID : 2
Format :
Format/Info : Digital Theater Systems
Codec ID : A_DTS
Duration : 1 h 37 min
Bit rate mode : Constant
Bit rate : 1 509 kb/s
Channel(s) : 6 channels
Channel layout : C L R Ls Rs LFE
Sampling rate : 48.0 kHz
Frame rate : 93.750 FPS (512 SPF)
Bit depth : 16 bits
Compression mode : Lossy
Stream size : 1.03 GiB (10%)
Title : [Оригінал] 5.1 @1509 Кбіт/с
Language : English
Default : Yes
Forced : No

Text #1
ID : 3
Format : UTF-8
Codec ID : S_TEXT/UTF8
Codec ID/Info : UTF-8 Plain Text
Duration : 1 h 28 min
Bit rate : 64 b/s
Count of elements : 775
Stream size : 41.7 KiB (0%)
Title : Повні
Language : Ukrainian
Default : Yes
Forced : No

Text #2
ID : 4
Format : UTF-8
Codec ID : S_TEXT/UTF8
Codec ID/Info : UTF-8 Plain Text
Duration : 27 min 29 s
Bit rate : 1 b/s
Count of elements : 8
Stream size : 335 Bytes (0%)
Title : Форсовані
Language : Ukrainian
Default : No
Forced : No

Text #3
ID : 5
Format : UTF-8
Codec ID : S_TEXT/UTF8
Codec ID/Info : UTF-8 Plain Text
Duration : 1 h 27 min
Bit rate : 41 b/s
Count of elements : 894
Stream size : 26.3 KiB (0%)
Title : Full
Language : English
Default : No
Forced : No

Text #4
ID : 6
Format : UTF-8
Codec ID : S_TEXT/UTF8
Codec ID/Info : UTF-8 Plain Text
Duration : 1 h 28 min
Bit rate : 45 b/s
Count of elements : 1072
Stream size : 29.7 KiB (0%)
Title : SDH
Language : English
Default : No
Forced : No

Text #5
ID : 7
Format : UTF-8
Codec ID : S_TEXT/UTF8
Codec ID/Info : UTF-8 Plain Text
Duration : 1 h 28 min
Bit rate : 57 b/s
Count of elements : 1073
Stream size : 37.6 KiB (0%)
Title : SDH Colored
Language : English
Default : No
Forced : No

Menu
00:00:00.000 : :Chapter 1
00:11:03.163 : :Chapter 2
00:15:10.410 : :Chapter 3
00:20:14.714 : :Chapter 4
00:26:15.574 : :Chapter 5
00:33:00.979 : :Chapter 6
00:38:09.788 : :Chapter 7
00:41:51.009 : :Chapter 8
00:45:27.725 : :Chapter 9
00:49:39.977 : :Chapter 10
00:54:36.774 : :Chapter 11
01:01:02.659 : :Chapter 12
01:05:06.403 : :Chapter 13
01:11:55.311 : :Chapter 14
01:16:33.589 : :Chapter 15
01:27:24.239 : :Chapter 16
Скріншоти








Джерело:


 Трекер:    Зареєстрований   

Завантажити / скачати фільм українською



відео для новачків



 Зареєстрований:   2020-05-11 01:08
 Розмір:   9.79 GB 
 Оцінка фільму:   1/10 (Голосів: 2)
   
Інші релізи
IRONHIDE 
VIP


З нами з: 06.08.10
Востаннє: 04.12.20
Повідомлень: 280

2020-05-11 09:28  
Повний 0!
Anonymous 







2020-05-11 19:40  
IRONHIDE
що саме? фільм? чи з релізом щось не те? Фільм цілком собі в стилі серії Астрал, але 1 та 2а частина краща

Ваш часовий пояс: GMT + 2 Години

Нова тема   Відповісти