Найдовший день / The Longest Day (1962) Remux 1080p Ukr/Eng | Sub Ukr/Eng

Нові коментарі

Нова тема   Відповісти
Автор Повідомлення
MakRA 
VIP


З нами з: 11.11.18
Востаннє: 29.09.20
Повідомлень: 1120

2020-05-11 01:57  
Найдовший день / The Longest Day (1962) Remux 1080p Ukr/Eng | Sub Ukr/Eng


Альтернативний українізований постер:

Альтернативні та оригінальні постери:









Жанр: воєнний, історичний, драма, екранізація літературного твору
Країна: США



Кінокомпанія: Twentieth Century Fox Film Corporation, Darryl F. Zanuck Productions, 20th Century Fox
Режисери: Деріл Ф. Занук [Darryl F. Zanuck], Кен Енакін [Ken Annakin], Ендрю Мартон [Andrew Marton], Бернгард Віккі [Bernhard Wicki], Ґерд Освальд [Gerd Oswald]
Актори: Джон Вейн [John Wayne], Шон Коннері [Sean Connery], Генрі Фонда [Henry Fonda], Роберт Мітчем [Robert Mitchum], Річард Бертон [Richard Burton], Річард Беймер [Richard Beymer], Мел Ферер [Mel Ferrer], Едді Альберт [Eddie Albert], Бурвіль [Bourvil], Іріна Демік [Irina Demick]

Сюжет:
Екранізація однойменного історичного роману одного з кращих військових репортерів минулого століття Корнеліуса Райана. Стрічка розповідає про операцію «Оверлорд» - висадка союзних військ у Нормандії, яка назавжди увійшла в історію як день «D» ...

Нагороди та номінації:

Оскар, 1963

Переможець: 2 / 5
Найкраща робота оператора (ч/б фільми): Вальтер Воттиц
Найкращі спецефекти

Номінації: 3 / 5
Найкращий фільм
Найкраща робота художника (ч/б фільми)
Найкращий монтаж

Золотий глобус, 1963

Переможець: 1 / 2
Найкраща робота оператора (ч/б фільми): Жан Бургуэн
Номінації: 1 / 2
Найкращий фільм (драма).


Тривалість: 02:58:20
Якість: Remux 1080p
Відео:
кодек:
розмір кадру: 1920 х 1080
бітрейт: 25,5 Mб/с

Аудіо # 1:
мова: українська
переклад: одноголосий закадровий
кодек: 2.0
бітрейт: 192 кб/с
Про озвучення:
Озвучено студією 1+1
Ролі озвучив: Георгій Гавриленко.
Аудіо # 2:
мова: англійська
переклад: оригінал
кодек: -HD HRA 5.1
бітрейт: 3018 кб/с

Аудіо # 3:
мова: англійська
переклад: оригінал
кодек: 5.1
бітрейт: 384 кб/с

Аудіо # 4:
мова: англійська
переклад: коментарі історика професора Мері Корі
кодек: 2.0
бітрейт: 192 кб/с

Аудіо # 5:
мова: англійська
переклад: коментарі режисера Кена Аннакіна
кодек: 2.0
бітрейт: 192 кб/с

Субтитри # 1-2: (Forced) | (Full)
мова: українська
тип: програмні (м'які)
формат: *.
примітка: витягнення з DVD та редагування - п. MutuLI
MutuLI написано:
субтитри з DVD зроблені в форматі , щоб перекрити вбудовані англійські субтитри


Субтитри # 3: (Full)
мова: англійська
тип: програмні (м'які)
формат: *.srt

Субтитри # 4-6: (Forced) | (Full) | (SDH)
мова: англійська
тип: пререндерні
формат: *.pgs

Субтитри # 7: (Full) | коментарі історика професова Мері Корі
мова: англійська
тип: пререндерні
формат: *.pgs

Субтитри # 8: (Full) | коментарі режисера Кена Аннакіна
мова: англійська
тип: пререндерні
формат: *.pgs

примітка: на місцях, де розмовляють німецькою або французькою, вбудовано інтертитри

Збережено оригінальні іменовані розділи, як на Blu-ray.
Info
General
Unique ID : 223957760971848459789695046513456315018 (0xA87CB220D30A29DF0D8363817103FA8A)
Complete name : M:\+ Фільми в HD\The Longest Day (1962) Remux 1080p UkrEng Sub UkrEng [Hurtom].
Format :
Format version : Version 4
File size : 36.8 GiB
Duration : 2 h 58 min
Overall bit rate mode : Variable
Overall bit rate : 29.5 Mb/s
Movie name : Найдовший день / The Longest Day (1962) Remux 1080p Ukr/Eng | Sub Ukr/Eng [Hurtom]
Encoded date : UTC 2020-05-11 21:30:12
Writing application : v44.0.0 ('Domino') 64-bit
Writing library : libebml v1.3.10 + v1.5.2
Cover : Yes
Attachments : cover.jpg

Video
ID : 1
Format : AVC
Format/Info : Advanced Video Codec
Format profile : [email protected]
Format settings : CABAC / 4 Ref Frames
Format settings, CABAC : Yes
Format settings, Reference : 4 frames
Format settings, GOP : M=3, N=12
Codec ID : V_MPEG4/ISO/AVC
Duration : 2 h 58 min
Bit rate mode : Variable
Bit rate : 25.5 Mb/s
Maximum bit rate : 36.5 Mb/s
Width : 1 920 pixels
Height : 1 080 pixels
Display aspect ratio : 16:9
Frame rate mode : Constant
Frame rate : 23.976 (24000/1001) FPS
Color space : YUV
Chroma subsampling : 4:2:0
Bit depth : 8 bits
Scan type : Progressive
Bits/(Pixel*Frame) : 0.512
Stream size : 31.7 GiB (86%)
Title : The Longest Day (1962) Remux 1080p Ukr/Eng | Sub Ukr/Eng [Hurtom]
Language : Ukrainian
Default : Yes
Forced : Yes
Color range : Limited
Color primaries : BT.709
Transfer characteristics : BT.709
Matrix coefficients : BT.709

Audio #1
ID : 2
Format : AC-3
Format/Info : Audio Coding 3
Commercial name : Dolby Digital
Codec ID : A_AC3
Duration : 2 h 58 min
Bit rate mode : Constant
Bit rate : 192 kb/s
Channel(s) : 2 channels
Channel layout : L R
Sampling rate : 48.0 kHz
Frame rate : 31.250 FPS (1536 SPF)
Compression mode : Lossy
Stream size : 245 MiB (1%)
Title : VO [1+1] 2.0 | Георгій Гавриленко
Language : Ukrainian
Service kind : Complete Main
Default : Yes
Forced : Yes

Audio #2
ID : 3
Format : XBR
Format/Info : Digital Theater Systems
Commercial name : -HD High Resolution Audio
Codec ID : A_DTS
Duration : 2 h 58 min
Bit rate mode : Constant
Bit rate : 3 018 kb/s
Channel(s) : 6 channels
Channel layout : C L R Ls Rs LFE
Sampling rate : 48.0 kHz
Frame rate : 93.750 FPS (512 SPF)
Bit depth : 24 bits
Compression mode : Lossy
Stream size : 3.76 GiB (10%)
Title : Original -HD HRA 5.1
Language : English
Default : No
Forced : No

Audio #3
ID : 4
Format : AC-3
Format/Info : Audio Coding 3
Commercial name : Dolby Digital
Codec ID : A_AC3
Duration : 2 h 58 min
Bit rate mode : Constant
Bit rate : 384 kb/s
Channel(s) : 6 channels
Channel layout : L R C LFE Ls Rs
Sampling rate : 48.0 kHz
Frame rate : 31.250 FPS (1536 SPF)
Compression mode : Lossy
Stream size : 490 MiB (1%)
Title : Original 5.1
Language : English
Service kind : Complete Main
Default : No
Forced : No

Audio #4
ID : 5
Format : AC-3
Format/Info : Audio Coding 3
Commercial name : Dolby Digital
Codec ID : A_AC3
Duration : 2 h 48 min
Bit rate mode : Constant
Bit rate : 224 kb/s
Channel(s) : 2 channels
Channel layout : L R
Sampling rate : 48.0 kHz
Frame rate : 31.250 FPS (1536 SPF)
Compression mode : Lossy
Stream size : 270 MiB (1%)
Title : Original 2.0 | Historical Commentary with UCLA professor Mary Corey
Language : English
Service kind : Complete Main
Default : No
Forced : No

Audio #5
ID : 6
Format : AC-3
Format/Info : Audio Coding 3
Commercial name : Dolby Digital
Codec ID : A_AC3
Duration : 2 h 48 min
Bit rate mode : Constant
Bit rate : 224 kb/s
Channel(s) : 2 channels
Channel layout : L R
Sampling rate : 48.0 kHz
Frame rate : 31.250 FPS (1536 SPF)
Compression mode : Lossy
Stream size : 270 MiB (1%)
Title : Original 2.0 | Filmmaker’s Commentary Co-director Ken Annakin
Language : English
Service kind : Complete Main
Default : No
Forced : No

Text #1
ID : 7
Format :
Codec ID : S_TEXT/
Codec ID/Info : Advanced Sub Station Alpha
Duration : 2 h 54 min
Bit rate : 2 b/s
Count of elements : 41
Compression mode : Lossless
Stream size : 3.70 KiB (0%)
Title : Ukr (Forced) | DVD
Language : Ukrainian
Default : Yes
Forced : Yes

Text #2
ID : 8
Format :
Codec ID : S_TEXT/
Codec ID/Info : Advanced Sub Station Alpha
Duration : 2 h 56 min
Bit rate : 91 b/s
Count of elements : 1602
Compression mode : Lossless
Stream size : 118 KiB (0%)
Title : Ukr (Full) | DVD
Language : Ukrainian
Default : No
Forced : No

Text #3
ID : 9
Format : UTF-8
Codec ID : S_TEXT/UTF8
Codec ID/Info : UTF-8 Plain Text
Duration : 2 h 53 min
Bit rate : 39 b/s
Count of elements : 1508
Stream size : 50.2 KiB (0%)
Title : Eng (Full) SRT
Language : English
Default : No
Forced : No

Text #4
ID : 10
Format : PGS
Muxing mode : zlib
Codec ID : S_HDMV/PGS
Codec ID/Info : Picture based subtitle format used on BDs/HD-DVDs
Duration : 2 h 47 min
Bit rate : 6 490 b/s
Count of elements : 716
Stream size : 7.77 MiB (0%)
Title : Eng (Forced) PGS
Language : English
Default : No
Forced : No

Text #5
ID : 11
Format : PGS
Muxing mode : zlib
Codec ID : S_HDMV/PGS
Codec ID/Info : Picture based subtitle format used on BDs/HD-DVDs
Duration : 2 h 47 min
Bit rate : 23.2 kb/s
Count of elements : 2932
Stream size : 27.8 MiB (0%)
Title : Eng (Full) PGS
Language : English
Default : No
Forced : No

Text #6
ID : 12
Format : PGS
Muxing mode : zlib
Codec ID : S_HDMV/PGS
Codec ID/Info : Picture based subtitle format used on BDs/HD-DVDs
Duration : 2 h 53 min
Bit rate : 25.9 kb/s
Count of elements : 3384
Stream size : 32.2 MiB (0%)
Title : Eng (SDH) PGS
Language : English
Default : No
Forced : No

Text #7
ID : 13
Format : PGS
Muxing mode : zlib
Codec ID : S_HDMV/PGS
Codec ID/Info : Picture based subtitle format used on BDs/HD-DVDs
Duration : 2 h 55 min
Bit rate : 51.9 kb/s
Count of elements : 5095
Stream size : 65.0 MiB (0%)
Title : Eng (Full) PGS | Historical Commentary with UCLA professor Mary Corey
Language : English
Default : No
Forced : No

Text #8
ID : 14
Format : PGS
Muxing mode : zlib
Codec ID : S_HDMV/PGS
Codec ID/Info : Picture based subtitle format used on BDs/HD-DVDs
Duration : 2 h 57 min
Bit rate : 35.4 kb/s
Count of elements : 4170
Stream size : 45.0 MiB (0%)
Title : Eng (Full) PGS | Filmmaker’s Commentary Co-director Ken Annakin
Language : English
Default : No
Forced : No

Menu
00:00:00.000 : en:In The Fifth Year
00:06:01.277 : en:Poems Of Love And Deception
00:09:52.300 : en:It's On!
00:15:09.241 : en:It's All A Gamble
00:21:10.769 : en:Where Johnny Lies
00:23:56.351 : en:Why You Have The Job
00:27:13.048 : en:Key To The Invasion
00:30:30.453 : en:War Games And A Birthday Party
00:32:49.425 : en:I Don't Like It
00:37:22.323 : en:Meet Rupert And Cricket
00:40:42.148 : en:John's Long Mustache
00:45:15.712 : en:The Eve Of The Day
00:50:05.585 : en:The Orne River Bridge
00:57:55.638 : en:Perfect Conditions
01:01:25.932 : en:Just Enough Diversion
01:07:20.202 : en:Derailing The Germans
01:11:27.992 : en:Guests From The Sky
01:17:54.002 : en:Sainte-Mere-Eglise
01:24:32.776 : en:Lost In A War
01:32:34.590 : en:What We Expected, What We've Earned
01:41:22.493 : en:What Will The Sea Bring
01:47:10.257 : en:A Two-Plane Counter Attack
01:48:21.077 : en:Omaha Beach
01:54:35.451 : en:Utah Beach
01:57:30.710 : en:The Buddy System
01:58:36.859 : en:Pipes And Kilts
02:02:32.053 : en:The French Have Arrived!
02:03:48.587 : en:Looking For Reinforcements
02:05:35.027 : en:Mrs Rommel's Birthday
02:06:38.215 : en:The One We Want
02:16:12.414 : en:The Fuhrer Is Furious
02:17:28.073 : en:Held And Relieved
02:20:36.428 : en:North By East!
02:22:46.516 : en:Ouistreham
02:31:57.691 : en:Two Kinds Of People
02:36:18.702 : en:News From The Front
02:37:30.649 : en:Hard Losses
02:40:50.223 : en:Removing The Middleman
02:47:31.958 : en:The Dead, The Crippled, The Lost
02:53:16.177 : en:The End Of The Longest Day
Скріншоти
Джерело: &
Подяка п. Tanat13 за запис звуку, п. omm та п. 21jumpstreet, п. BILko та п. 11FrYkT, MutuLI за створення релізу
Найдовший день / The Longest Day (1962) Ukr/Eng | Sub Ukr/Eng
Особиста оцінка: 10 - без зайвих вагань рекомендую всім!



Золотий реліз (завантажене не впливає на рейтинг)
 Трекер:    Зареєстрований   

Завантажити / скачати фільм українською



відео для новачків



 Зареєстрований:   2020-05-12 01:28
 Розмір:   36.79 GB 
 Оцінка фільму:   8.5/10 (Голосів: 6)
   
Інші релізи
bot 
робот


З нами з: 30.09.07
Востаннє: 26.05.05
Повідомлень: 25643

2020-05-12 01:27  
Тему перенесено з Анонси релізів до форуму Фільми в HD


MakRA

Ваш часовий пояс: GMT + 2 Години

Нова тема   Відповісти