Річард Джуелл / Richard Jewell (2019) 1080p Ukr/Eng | Sub Eng

Нові коментарі

Нова тема   Відповісти
Автор Повідомлення
Anonymous 







2020-05-11 01:39  


Річард Джуелл / Richard Jewell (2019) 1080p Ukr/Eng | Sub Eng



«Світ дізнається його ім'я. Світ дізнається його правду »






Альтернативний постер




Жанр: біографія, драма
Країна: США











Кінокомпанія: Warner Bros. Pictures, Appian Way
Режисер: Клінт Іствуд
Актори: Пол Волтер Гаузер, Сем Роквелл, Брендон Стенлі, Раян Боз, Чарльз Грін, Олівія Вайлд, Майк Пнівський, Джон Гемм, Іен Гомес, Ніна Аріанда, Кеті Бейтс, Вейн Дювалл, Ділан Кассман


Сюжет:
Річард Джуелл – це звичайний американський чоловік, що працював охоронцем на Олімпіаді 1996 року в Атланті, США. В один вечір біля лавочки в парку Річард побачив підозрілий рюкзак, який просто розпирало від вибухівки. Але він не розгубився і став ініціатором евакуації, так що завдяки йому тисячі людей врятували свої життя. Річард став справжнім героєм всієї країни, але так тривало недовго. ФБР, а що ще гірше, ЗМІ почали підозрювати Річарда в тому, що саме він був організатором теракту. Агенти вважають його головним підозрюваним, а журналісти просто чіпляються за все підряд, щоб облити брудом охоронця. Їм нескладно зруйнувати життя хлопця, навіть якщо це не він заклав бомбу. Пора дізнатися правду.



Тривалість: 02:10:56
Якість: 1080p


Відео:
кодек:
розмір кадру: 1920 x 804
бітрейт: ~12000 кб/с

Аудіо # 1:
мова: українська
переклад: професійний дубльований
кодек: 5.1
бітрейт: 384 кб/с

Аудіо # 2:
мова: англійська
переклад: оригінал
кодек: 5.1
бітрейт: 1536 кб/с

Субтитри # 1 : (Forced)
мова: українська
тип: програмні (м'які)
формат: *.srt

Субтитри # 2 - 3 : (Full, SDH)
мова: англійська
тип: програмні (м'які)
формат: *.srt

Info
Код:
General
Complete name                            : Richard Jewell (2019) 1080p [UKR_ENG] [ViDeO_HuRtOm].
Format                                   :
Format version                           : Version 4
File size                                : 12.8 GiB
Duration                                 : 2 h 10 min
Overall bit rate                         : 14.0 Mb/s
Movie name                               : Річард Джуелл / Richard Jewell (2019)
Encoded date                             : UTC 2020-05-10 21:37:16
Writing application                      : v30.1.0 ('Forever And More') 64-bit
Writing library                          : libebml v1.3.6 + v1.4.9
Cover                                    : Yes
Attachments                              : cover.jpg

Video
ID                                       : 1
Format                                   : AVC
Format/Info                              : Advanced Video Codec
Format profile                           : [email protected]
Format settings                          : CABAC / 4 Ref Frames
Format settings, CABAC                   : Yes
Format settings, RefFrames               : 4 frames
Codec ID                                 : V_MPEG4/ISO/AVC
Duration                                 : 2 h 10 min
Bit rate                                 : 12.0 Mb/s
Width                                    : 1 920 pixels
Height                                   : 804 pixels
Display aspect ratio                     : 2.40:1
Frame rate mode                          : Constant
Frame rate                               : 23.976 (24000/1001) FPS
Color space                              : YUV
Chroma subsampling                       : 4:2:0
Bit depth                                : 8 bits
Scan type                                : Progressive
Bits/(Pixel*Frame)                       : 0.325
Stream size                              : 11.0 GiB (86%)
Title                                    : CHD
Writing library                          : core 157 r2867+150 7e91e0e t_mod_Custom_2 [[email protected] X86_64]
Encoding settings                        : cabac=1 / ref=4 / deblock=1:-3:-3 / analyse=0x3:0x133 / me=umh / subme=11 / psy=1 / fade_compensate=0.00 / psy_rd=0.90:0.10 / mixed_ref=1 / me_range=64 / chroma_me=1 / trellis=2 / 8x8dct=1 / cqm=0 / deadzone=21,11 / fast_pskip=0 / chroma_qp_offset=-4 / threads=25 / lookahead_threads=4 / sliced_threads=0 / nr=0 / decimate=1 / interlaced=0 / bluray_compat=0 / constrained_intra=0 / fgo=0 / bframes=8 / b_pyramid=2 / b_adapt=2 / b_bias=0 / direct=3 / weightb=1 / open_gop=0 / weightp=2 / keyint=250 / keyint_min=23 / scenecut=40 / intra_refresh=0 / rc_lookahead=60 / rc=crf / mbtree=0 / crf=18.0000 / qcomp=0.70 / qpmin=0:0:0 / qpmax=69:69:69 / qpstep=4 / vbv_maxrate=35000 / vbv_bufsize=35000 / crf_max=0.0 / nal_hrd=none / filler=0 / ip_ratio=1.40 / pb_ratio=1.30 / aq=3:1.00 / aq-sensitivity=10.00 / aq-factor=1.00:1.00:1.00 / aq2=0 / aq3=0
Language                                 : English
Default                                  : Yes
Forced                                   : No

Audio #1
ID                                       : 2
Format                                   : AC-3
Format/Info                              : Audio Coding 3
Commercial name                          : Dolby Digital
Codec ID                                 : A_AC3
Duration                                 : 2 h 10 min
Bit rate mode                            : Constant
Bit rate                                 : 384 kb/s
Channel(s)                               : 6 channels
Channel layout                           : L R C LFE Ls Rs
Sampling rate                            : 48.0 kHz
Frame rate                               : 31.250 FPS (1536 SPF)
Bit depth                                : 16 bits
Compression mode                         : Lossy
Stream size                              : 360 MiB (3%)
Title                                    : 5.1 | 384
Language                                 : Ukrainian
Service kind                             : Complete Main
Default                                  : Yes
Forced                                   : No

Audio #2
ID                                       : 3
Format                                   :
Format/Info                              : Digital Theater Systems
Codec ID                                 : A_DTS
Duration                                 : 2 h 10 min
Bit rate mode                            : Constant
Bit rate                                 : 1 536 kb/s
Channel(s)                               : 6 channels
Channel layout                           : C L R Ls Rs LFE
Sampling rate                            : 48.0 kHz
Frame rate                               : 93.750 FPS (512 SPF)
Bit depth                                : 16 bits
Compression mode                         : Lossy
Stream size                              : 1.40 GiB (11%)
Title                                    : 5.1 | 1536
Language                                 : English
Default                                  : No
Forced                                   : No

Text #1
ID                                       : 4
Format                                   : UTF-8
Codec ID                                 : S_TEXT/UTF8
Codec ID/Info                            : UTF-8 Plain Text
Duration                                 : 2 h 10 min
Bit rate                                 : 3 b/s
Count of elements                        : 53
Stream size                              : 3.73 KiB (0%)
Title                                    : Forced
Language                                 : Ukrainian
Default                                  : Yes
Forced                                   : No

Text #2
ID                                       : 5
Format                                   : UTF-8
Codec ID                                 : S_TEXT/UTF8
Codec ID/Info                            : UTF-8 Plain Text
Duration                                 : 2 h 3 min
Bit rate                                 : 80 b/s
Count of elements                        : 2470
Stream size                              : 72.7 KiB (0%)
Title                                    : Full
Language                                 : English
Default                                  : No
Forced                                   : No

Text #3
ID                                       : 6
Format                                   : UTF-8
Codec ID                                 : S_TEXT/UTF8
Codec ID/Info                            : UTF-8 Plain Text
Duration                                 : 2 h 3 min
Bit rate                                 : 87 b/s
Count of elements                        : 2665
Stream size                              : 79.7 KiB (0%)
Title                                    : SDH
Language                                 : English
Default                                  : No
Forced                                   : No

Menu
00:00:00.000                             : en:00:00:00.000
00:09:51.633                             : en:00:09:51.633
00:20:03.619                             : en:00:20:03.619
00:29:55.127                             : en:00:29:55.127
00:40:03.192                             : en:00:40:03.192
00:48:21.065                             : en:00:48:21.065
00:57:52.552                             : en:00:57:52.552
01:06:35.575                             : en:01:06:35.575
01:14:34.303                             : en:01:14:34.303
01:24:33.402                             : en:01:24:33.402
01:34:04.097                             : en:01:34:04.097
01:44:01.360                             : en:01:44:01.360
01:52:20.192                             : en:01:52:20.192
02:02:28.550                             : en:02:02:28.550
02:04:53.361                             : en:02:04:53.361

Скріншоти




Джерело:
Особиста оцінка: 10 - без зайвих вагань рекомендую всім!






 Трекер:    Зареєстрований   

Завантажити / скачати фільм українською



відео для новачків



 Зареєстрований:   2020-05-11 01:39
 Розмір:   12.77 GB 
 Оцінка фільму:   9.8/10 (Голосів: 24)
   
Інші релізи
   Річард Джуелл / Richard Jewell (2019) antik_2008  23 / 0   1.98 GB   2020-05-11 02:25 
   Річард Джуелл / Richard Jewell (2019) 720p Ukr/Eng | Sub Eng antik_2008  12 / 0   7.89 GB   2020-05-11 01:10 
   Річард Джуелл / Richard Jewell (2019) Remux 1080p Ukr/Eng | Sub Eng antik_2008  5 / 0   31.57 GB   2020-05-11 01:10 
   Річард Джуелл / Richard Jewell (2019) AVC Ukr/Eng | Sub Eng 11FrYkT  22 / 0   2.49 GB   2020-05-10 18:24 
ukrnet 
Свій


З нами з: 03.01.14
Востаннє: 20.09.20
Повідомлень: 97

2020-05-11 23:15  
10/10 Рекомендую для перегляду!
yourgrin 
Новенький


З нами з: 05.03.14
Востаннє: 21.09.20
Повідомлень: 18

2020-05-16 19:59  
Якісне кіно від майстра!
Akio Furukawa 
Свій


З нами з: 02.11.19
Востаннє: 22.09.20
Повідомлень: 103

2020-06-08 23:59  
Так, безумовно чудове кіно!
10/10

Курваро 
Частий відвідувач


З нами з: 09.08.17
Востаннє: 17.09.20
Повідомлень: 33

2020-06-09 16:24  
Чудове кіно!
argot 
Новенький


З нами з: 24.12.16
Востаннє: 22.09.20
Повідомлень: 6

2020-06-15 14:50  
шановне панство та панянство а що відбувається з гучністю звуку останнім часом? особливо орігінальних доріжок. дуже часто маю викручувати близько до 100% щоб нормально чути. іноді українська нормально оригінальна ледь чутна. чи можна трошки звертати на це увагу. дякую!

стосується не тільки цієї роздачи. якась дивна тенденція

Akio Furukawa 
Свій


З нами з: 02.11.19
Востаннє: 22.09.20
Повідомлень: 103

2020-06-15 15:50  
У мене на старих навушниках доводилося на 120 % викручувати VLC, а як купив нові — усе норм.
-_-B_Е_N_D_E_R-_- 
VIP


З нами з: 04.03.20
Востаннє: 22.09.20
Повідомлень: 529

2020-06-15 16:07  
argot написано:

шановне панство та панянство а що відбувається з гучністю звуку останнім часом? особливо орігінальних доріжок. дуже часто маю викручувати близько до 100% щоб нормально чути. іноді українська нормально оригінальна ледь чутна. чи можна трошки звертати на це увагу. дякую!

стосується не тільки цієї роздачи. якась дивна тенденція

Немає ніякої тенденції, оригінальний звук ніхто ніколи не чіпав.

argot 
Новенький


З нами з: 24.12.16
Востаннє: 22.09.20
Повідомлень: 6

2020-06-15 17:02  
-_-B_Е_N_D_E_R-_-

можливо налаштування mpc-hc помінялися. викрутив ампліфікацію до 400% наче норм

непогана клінтіствудщина

Ваш часовий пояс: GMT + 2 Години

Нова тема   Відповісти