Річард Джуелл / Richard Jewell (2019) 720p Ukr/Eng | Sub Eng

Нові коментарі

Нова тема   Відповісти
Автор Повідомлення
Anonymous 







2020-05-11 01:10  


Річард Джуелл / Richard Jewell (2019) 720p Ukr/Eng | Sub Eng



«Світ дізнається його ім'я. Світ дізнається його правду »






Альтернативний постер




Жанр: біографічний, драма
Країна: США











Кінокомпанія: Warner Bros. Pictures, Appian Way
Режисер: Клінт Іствуд
Актори: Пол Волтер Гаузер, Сем Роквелл, Брендон Стенлі, Раян Боз, Чарльз Грін, Олівія Вайлд, Майк Пнівський, Джон Гемм, Іен Гомес, Ніна Аріанда, Кеті Бейтс, Вейн Дювалл, Ділан Кассман


Сюжет:
Річард Джуелл – це звичайний американський чоловік, що працював охоронцем на Олімпіаді 1996 року в Атланті, США. В один вечір біля лавочки в парку Річард побачив підозрілий рюкзак, який просто розпирало від вибухівки. Але він не розгубився і став ініціатором евакуації, так що завдяки йому тисячі людей врятували свої життя. Річард став справжнім героєм всієї країни, але так тривало недовго. ФБР, а що ще гірше, ЗМІ почали підозрювати Річарда в тому, що саме він був організатором теракту. Агенти вважають його головним підозрюваним, а журналісти просто чіпляються за все підряд, щоб облити брудом охоронця. Їм нескладно зруйнувати життя хлопця, навіть якщо це не він заклав бомбу. Пора дізнатися правду.



Тривалість: 02:10:56
Якість: 720p


Відео:
кодек:
розмір кадру: 1280 x 536
бітрейт: ~6702 кб/с

Аудіо # 1:
мова: українська
переклад: професійний дубльований
кодек: 5.1
бітрейт: 384 кб/с

Аудіо # 2:
мова: англійська
переклад: оригінал
кодек: 5.1
бітрейт: 1536 кб/с

Субтитри # 1 : (Forced)
мова: українська
тип: програмні (м'які)
формат: *.srt

Субтитри # 2 - 3 : (Full, SDH)
мова: англійська
тип: програмні (м'які)
формат: *.srt

Info
Код:
General
Complete name                            : Richard Jewell (2019) 720p [UKR_ENG] [ViDeO_HuRtOm].
Format                                   :
Format version                           : Version 4
File size                                : 7.89 GiB
Duration                                 : 2 h 10 min
Overall bit rate                         : 8 626 kb/s
Movie name                               : Річард Джуелл / Richard Jewell (2019)
Encoded date                             : UTC 2020-05-10 21:30:52
Writing application                      : v30.1.0 ('Forever And More') 64-bit
Writing library                          : libebml v1.3.6 + v1.4.9
Cover                                    : Yes
Attachments                              : cover.jpg

Video
ID                                       : 1
Format                                   : AVC
Format/Info                              : Advanced Video Codec
Format profile                           : [email protected]
Format settings                          : CABAC / 12 Ref Frames
Format settings, CABAC                   : Yes
Format settings, RefFrames               : 12 frames
Codec ID                                 : V_MPEG4/ISO/AVC
Duration                                 : 2 h 10 min
Bit rate                                 : 6 702 kb/s
Width                                    : 1 280 pixels
Height                                   : 536 pixels
Display aspect ratio                     : 2.40:1
Frame rate mode                          : Constant
Frame rate                               : 23.976 (24000/1001) FPS
Color space                              : YUV
Chroma subsampling                       : 4:2:0
Bit depth                                : 8 bits
Scan type                                : Progressive
Bits/(Pixel*Frame)                       : 0.407
Stream size                              : 6.13 GiB (78%)
Title                                    : iFT
Writing library                          : core 159 r2991+49 ~ Encoded by Mocunaman in Portugal
Encoding settings                        : cabac=1 / ref=12 / deblock=1:-3:-3 / analyse=0x3:0x113 / me=tesa / subme=11 / psy=1 / fade_compensate=0.00 / psy_rd=1.00:0.00 / mixed_ref=1 / me_range=24 / chroma_me=1 / trellis=2 / 8x8dct=1 / cqm=0 / deadzone=21,11 / fast_pskip=0 / chroma_qp_offset=-2 / threads=17 / lookahead_threads=2 / sliced_threads=0 / nr=0 / decimate=0 / interlaced=0 / bluray_compat=0 / constrained_intra=0 / fgo=0 / bframes=8 / b_pyramid=2 / b_adapt=2 / b_bias=0 / direct=3 / weightb=1 / open_gop=0 / weightp=2 / keyint=250 / keyint_min=23 / scenecut=40 / intra_refresh=0 / rc_lookahead=60 / rc=crf / mbtree=0 / crf=14.8000 / qcomp=0.60 / qpmin=0:0:0 / qpmax=69:69:69 / qpstep=4 / vbv_maxrate=62500 / vbv_bufsize=78125 / crf_max=0.0 / nal_hrd=none / filler=0 / ip_ratio=1.30 / pb_ratio=1.20 / aq=3:0.80 / aq-sensitivity=10.00 / aq-factor=1.00:1.00:1.00 / aq2=0 / aq3=0 / zones=28857,28956,crf=12.8/36130,37092,crf=12.8/43572,46308,crf=12.8/65158,69555,crf=12.8/98955,100815,crf=12.8
Language                                 : English
Default                                  : Yes
Forced                                   : No
Color range                              : Limited
Color primaries                          : BT.709
Transfer characteristics                 : BT.709
Matrix coefficients                      : BT.709

Audio #1
ID                                       : 2
Format                                   : AC-3
Format/Info                              : Audio Coding 3
Commercial name                          : Dolby Digital
Codec ID                                 : A_AC3
Duration                                 : 2 h 10 min
Bit rate mode                            : Constant
Bit rate                                 : 384 kb/s
Channel(s)                               : 6 channels
Channel layout                           : L R C LFE Ls Rs
Sampling rate                            : 48.0 kHz
Frame rate                               : 31.250 FPS (1536 SPF)
Bit depth                                : 16 bits
Compression mode                         : Lossy
Stream size                              : 360 MiB (4%)
Title                                    : 5.1 | 384
Language                                 : Ukrainian
Service kind                             : Complete Main
Default                                  : Yes
Forced                                   : No

Audio #2
ID                                       : 3
Format                                   :
Format/Info                              : Digital Theater Systems
Codec ID                                 : A_DTS
Duration                                 : 2 h 10 min
Bit rate mode                            : Constant
Bit rate                                 : 1 536 kb/s
Channel(s)                               : 6 channels
Channel layout                           : C L R Ls Rs LFE
Sampling rate                            : 48.0 kHz
Frame rate                               : 93.750 FPS (512 SPF)
Bit depth                                : 16 bits
Compression mode                         : Lossy
Stream size                              : 1.40 GiB (18%)
Title                                    : 5.1 | 1536
Language                                 : English
Default                                  : No
Forced                                   : No

Text #1
ID                                       : 4
Format                                   : UTF-8
Codec ID                                 : S_TEXT/UTF8
Codec ID/Info                            : UTF-8 Plain Text
Duration                                 : 2 h 10 min
Bit rate                                 : 3 b/s
Count of elements                        : 53
Stream size                              : 3.73 KiB (0%)
Title                                    : Forced
Language                                 : Ukrainian
Default                                  : Yes
Forced                                   : No

Text #2
ID                                       : 5
Format                                   : UTF-8
Codec ID                                 : S_TEXT/UTF8
Codec ID/Info                            : UTF-8 Plain Text
Duration                                 : 2 h 3 min
Bit rate                                 : 80 b/s
Count of elements                        : 2470
Stream size                              : 72.7 KiB (0%)
Title                                    : Full
Language                                 : English
Default                                  : No
Forced                                   : No

Text #3
ID                                       : 6
Format                                   : UTF-8
Codec ID                                 : S_TEXT/UTF8
Codec ID/Info                            : UTF-8 Plain Text
Duration                                 : 2 h 3 min
Bit rate                                 : 87 b/s
Count of elements                        : 2665
Stream size                              : 79.7 KiB (0%)
Title                                    : SDH
Language                                 : English
Default                                  : No
Forced                                   : No

Menu
00:00:00.000                             : en:Chapter 01
00:09:51.633                             : en:Chapter 02
00:20:03.619                             : en:Chapter 03
00:29:55.127                             : en:Chapter 04
00:40:03.192                             : en:Chapter 05
00:48:21.065                             : en:Chapter 06
00:57:52.552                             : en:Chapter 07
01:06:35.575                             : en:Chapter 08
01:14:34.303                             : en:Chapter 09
01:24:33.402                             : en:Chapter 10
01:34:04.097                             : en:Chapter 11
01:44:01.360                             : en:Chapter 12
01:52:20.192                             : en:Chapter 13
02:02:28.550                             : en:Chapter 14
02:04:53.361                             : en:Chapter 15

Скріншоти




Джерело:
Особиста оцінка: 10 - без зайвих вагань рекомендую всім!






 Трекер:    Зареєстрований   

Завантажити / скачати фільм українською



відео для новачків



 Зареєстрований:   2020-05-11 01:10
 Розмір:   7.89 GB 
 Оцінка фільму:   9.2/10 (Голосів: 23)
   
Інші релізи
   Річард Джуелл / Richard Jewell (2019) antik_2008  40 / 1   1.98 GB   2020-05-11 02:25 
   Річард Джуелл / Richard Jewell (2019) 1080p Ukr/Eng | Sub Eng antik_2008  38 / 0   12.77 GB   2020-05-11 01:39 
   Річард Джуелл / Richard Jewell (2019) Remux 1080p Ukr/Eng | Sub Eng antik_2008  8 / 0   31.57 GB   2020-05-11 01:10 
   Річард Джуелл / Richard Jewell (2019) AVC Ukr/Eng | Sub Eng 11FrYkT  43 / 0   2.49 GB   2020-05-10 18:24 
anhlib 
Новенький


З нами з: 30.11.16
Востаннє: 15.09.20
Повідомлень: 6

2020-05-11 22:06  
Гарний фільм
[email protected] 
Новенький


З нами з: 23.02.16
Востаннє: 23.09.20
Повідомлень: 4

2020-05-13 17:40  
Чудовий фільм. Рекомендую.
myru22 
Свій


З нами з: 27.11.16
Востаннє: 25.08.20
Повідомлень: 95

2020-05-16 23:22  
супер фільм. не знаю, як Клінт Іствуд це досить робить в свої майже 90 років. так і надалі тримати. ікона кіно.
Курваро 
Частий відвідувач


З нами з: 09.08.17
Востаннє: 22.09.20
Повідомлень: 33

2020-05-21 19:31  
Чудове кіно
slammajamma 
Новенький


З нами з: 11.01.16
Востаннє: 23.09.20
Повідомлень: 10

2020-06-12 19:00  
Фільм гарненний! Зворушлива історія. Клінт Іствуд як режисер - один з найсильніших, як на мене.
Актори просто топові! Пол Волтер Гаузер - для мене відкриття, мій улюблений Сем Роквелл, Олівія Вайлд, та іконічна Кеті Бейтс. Просто гарне кіно, яке часто не переглядають, але емоції викликає сильні.

Ваш часовий пояс: GMT + 2 Години

Нова тема   Відповісти