Про рибалку та його дружину / Vom Fischer und seiner Frau (2013) AVC Ukr/Ger

Нові коментарі

Нова тема   Відповісти
Автор Повідомлення
Arsenfpu 
Відео Гуртом - фільмокрай
Відео Гуртом - фільмокрай


З нами з: 30.04.09
Востаннє: 06.07.20
Повідомлень: 7042

2020-05-10 23:26  
Про рибалку та його дружину / Vom Fischer und seiner Frau (2013) AVC Ukr/Ger

Про рибалку та його дружину / Vom Fischer und seiner Frau (2013) AVC Ukr/Ger


Жанр: фентезі, сімейний
Країна: Німеччина



Кінокомпанія: Zieglerfilm Köln, Norddeutscher Rundfunk
Режисер: Крістіан Фід
Актори: Фабіан Буш, Катаріна Шутлер, Петер Генріх Брікс

Сюжет:
Рибак, який живе зі своєю дружиною Ільзебіль в бідній халупі, одного разу виловлює з моря камбалу, яка виявляється зачарованим принцом, і просить відпустити його в море, що рибалка охоче і виконує. Коли про це чує Ільзебіль, то запитує чоловіка: чи не попросив він що-небудь в обмін на свободу риби і змушує його викликати камбалу знову, щоб побажати собі будинок. Чарівна риба це бажання негайно виконує. Однак незабаром Ільзебіль знову посилає чоловіка зажадати від камбали кам'яний замок, потім послідовно бажає стати королем, імператором і нарешті папою. З кожним проханням рибалки все сильніше вирує море.


Тривалість: 00:58:20
Якість:
Відео:
кодек:
розмір кадру: 1 024 х 576
бітрейт: 2 100 кб/с

Аудіо # 1:
мова: українська
переклад: багатоголосий закадровий
кодек: 2.0
бітрейт: 192 кб/с

Аудіо # 2:
мова: німецька
переклад: оригінал
кодек: 2.0
бітрейт: 192 кб/с
Скріншоти














Про файл
General
Unique ID : 160264196818594476386596910721253168817 (0x7891C2F60783F7D4AE5BF395A732D6B1)
Complete name : C:\Vom Fischer und seiner Frau (2013) [Ukr_Ger] AVC [Hurtom].
Format :
Format version : Version 4 / Version 2
File size : 1.02 GiB
Duration : 58 min
Overall bit rate : 2 484 kb/s
Movie name : Про рибалку та його дружину / Vom Fischer und seiner Frau (2013)
Encoded date : UTC 2020-05-10 19:16:42
Writing application : v21.0.0 ('Tardigrades Will Inherit The Earth') 32-bit
Writing library : libebml v1.3.5 + v1.4.8
Cover : Yes
Attachments : cover.jpg

Video
ID : 1
Format : AVC
Format/Info : Advanced Video Codec
Format profile : [email protected]
Format settings, CABAC : Yes
Format settings, ReFrames : 4 frames
Codec ID : V_MPEG4/ISO/AVC
Duration : 58 min
Bit rate : 2 100 kb/s
Width : 1 024 pixels
Height : 576 pixels
Display aspect ratio : 16:9
Frame rate mode : Constant
Frame rate : 30.000 FPS
Color space : YUV
Chroma subsampling : 4:2:0
Bit depth : 8 bits
Scan type : Progressive
Bits/(Pixel*Frame) : 0.119
Stream size : 879 MiB (85%)
Writing library : core 157 r2935 545de2f
Encoding settings : cabac=1 / ref=3 / deblock=1:-1:-1 / analyse=0x3:0x113 / me=hex / subme=7 / psy=1 / psy_rd=1.00:0.15 / mixed_ref=1 / me_range=16 / chroma_me=1 / trellis=1 / 8x8dct=1 / cqm=0 / deadzone=21,11 / fast_pskip=1 / chroma_qp_offset=-3 / threads=12 / lookahead_threads=2 / sliced_threads=0 / nr=0 / decimate=1 / interlaced=0 / bluray_compat=0 / constrained_intra=0 / bframes=3 / b_pyramid=2 / b_adapt=1 / b_bias=0 / direct=1 / weightb=1 / open_gop=0 / weightp=2 / keyint=300 / keyint_min=30 / scenecut=40 / intra_refresh=0 / rc_lookahead=40 / rc=2pass / mbtree=1 / bitrate=2100 / ratetol=1.0 / qcomp=0.60 / qpmin=0 / qpmax=69 / qpstep=4 / cplxblur=20.0 / qblur=0.5 / ip_ratio=1.40 / aq=1:1.00
Default : Yes
Forced : No

Audio #1
ID : 2
Format : AC-3
Format/Info : Audio Coding 3
Mode extension : CM (complete main)
Format settings, Endianness : Big
Codec ID : A_AC3
Duration : 58 min
Bit rate mode : Constant
Bit rate : 192 kb/s
Channel(s) : 2 channels
Channel positions : Front: L R
Sampling rate : 48.0 kHz
Frame rate : 31.250 FPS (1536 spf)
Compression mode : Lossy
Stream size : 80.3 MiB (8%)
Title : ТЕТ
Language : Ukrainian
Default : Yes
Forced : Yes

Audio #2
ID : 3
Format :
Format/Info : Advanced Audio Codec
Format profile : LC
Codec ID : A_AAC
Duration : 58 min
Bit rate : 192 kb/s
Channel(s) : 2 channels
Channel positions : Front: L R
Sampling rate : 48.0 kHz
Frame rate : 46.875 FPS (1024 spf)
Compression mode : Lossy
Stream size : 79.0 MiB (8%)
Language : German
Default : No
Forced : No
Джерело:
За українську доріжку дякую п. НТН, ssTAss
Особиста оцінка: не дивився


 Трекер:    Зареєстрований   

Завантажити / скачати фільм українською



відео для новачків



 Зареєстрований:   2020-05-10 23:26
 Розмір:   1.02 GB 
 Оцінка фільму:   10/10 (Голосів: 3)
   
Ваш часовий пояс: GMT + 2 Години

Нова тема   Відповісти