Прибулець і я / Mac and Me (1988) AVC 2xUkr/Eng | Sub Eng

Нові коментарі

Нова тема   Відповісти
Автор Повідомлення
Arsenfpu 
Відео Гуртом - фільмокрай
Відео Гуртом - фільмокрай


З нами з: 30.04.09
Востаннє: 03.07.20
Повідомлень: 7031

2020-05-10 21:38  
Прибулець і я / Mac and Me (1988) AVC 2xUkr/Eng | Sub Eng

Прибулець і я / Mac and Me (1988) AVC 2xUkr/Eng | Sub Eng


Жанр: фантастика, фентезі, пригодницький, сімейний
Країна: США



Кінокомпанія: Mac and Me Joint Venture
Режисер: Стюарт Реффіл
Актори: Крістін Еберсоул, Джонатан Вард, Тіна Каспарі, Лоурен Стенлі, Вінні Торренте, Мартін Вест, Іван Дж. Радо, Денні Куксі, Лора Вотербері

Сюжет:
Мак - звичайна дитина, тільки з іншої планети, і виглядає він зовсім не так, як мешканці Землі. Разом з мамою і татом він прилітає з космосу в світ людей, але потім губиться і знаходить притулок в будинку родини, де є двоє дітей. У новому лякаючому світі Мак може покладатися тільки на свої незвичайні для землян здібності. Кращим другом Мака стає хлопчик-інвалід, який допомагає симпатязі-прибульцю адаптуватися в нових умовах і приховує його від ворогів.


Тривалість: 01:39:21
Якість:
Відео:
кодек:
розмір кадру: 1 024 х 560
бітрейт: 2 299 кб/с

Аудіо # 1:
мова: українська
переклад: багатоголосий закадровий
кодек: 2.0
бітрейт: 192 кб/с

Аудіо # 2:
мова: українська
переклад: двоголосий закадровий
кодек: 2.0
бітрейт: 192 кб/с

Аудіо # 3:
мова: англійська
переклад: оригінал
кодек: 2.0
бітрейт: 384 кб/с

Субтитри:
мова: англійська
тип: програмні (м'які)
формат: *.srt
Скріншоти














Про файл
General
Unique ID : 240376123708316166004550048640725085146 (0xB4D6C1E8AC475310BCE4767124EAEBDA)
Complete name : C:\Mac and Me (1988) [2xUkr,Eng] AVC [Hurtom].
Format :
Format version : Version 4 / Version 2
File size : 2.13 GiB
Duration : 1 h 39 min
Overall bit rate : 3 068 kb/s
Movie name : Прибулець і я / Mac and Me (1988)
Encoded date : UTC 2020-05-10 17:04:47
Writing application : v21.0.0 ('Tardigrades Will Inherit The Earth') 32-bit
Writing library : libebml v1.3.5 + v1.4.8
Cover : Yes
Attachments : cover.jpg

Video
ID : 1
Format : AVC
Format/Info : Advanced Video Codec
Format profile : [email protected]
Format settings, CABAC : Yes
Format settings, ReFrames : 4 frames
Codec ID : V_MPEG4/ISO/AVC
Duration : 1 h 39 min
Bit rate : 2 299 kb/s
Width : 1 024 pixels
Height : 560 pixels
Display aspect ratio : 1.85:1
Frame rate mode : Constant
Frame rate : 23.976 (24000/1001) FPS
Color space : YUV
Chroma subsampling : 4:2:0
Bit depth : 8 bits
Scan type : Progressive
Bits/(Pixel*Frame) : 0.167
Stream size : 1.59 GiB (75%)
Writing library : core 157 r2935 545de2f
Encoding settings : cabac=1 / ref=3 / deblock=1:-1:-1 / analyse=0x3:0x113 / me=hex / subme=7 / psy=1 / psy_rd=1.00:0.15 / mixed_ref=1 / me_range=16 / chroma_me=1 / trellis=1 / 8x8dct=1 / cqm=0 / deadzone=21,11 / fast_pskip=1 / chroma_qp_offset=-3 / threads=12 / lookahead_threads=2 / sliced_threads=0 / nr=0 / decimate=1 / interlaced=0 / bluray_compat=0 / constrained_intra=0 / bframes=3 / b_pyramid=2 / b_adapt=1 / b_bias=0 / direct=1 / weightb=1 / open_gop=0 / weightp=2 / keyint=240 / keyint_min=23 / scenecut=40 / intra_refresh=0 / rc_lookahead=40 / rc=2pass / mbtree=1 / bitrate=2299 / ratetol=1.0 / qcomp=0.60 / qpmin=0 / qpmax=69 / qpstep=4 / cplxblur=20.0 / qblur=0.5 / ip_ratio=1.40 / aq=1:1.00
Default : Yes
Forced : No

Audio #1
ID : 2
Format : AC-3
Format/Info : Audio Coding 3
Mode extension : CM (complete main)
Format settings, Endianness : Big
Codec ID : A_AC3
Duration : 1 h 39 min
Bit rate mode : Constant
Bit rate : 192 kb/s
Channel(s) : 2 channels
Channel positions : Front: L R
Sampling rate : 48.0 kHz
Frame rate : 31.250 FPS (1536 spf)
Compression mode : Lossy
Stream size : 136 MiB (6%)
Title : amc
Language : Ukrainian
Default : Yes
Forced : Yes

Audio #2
ID : 3
Format : AC-3
Format/Info : Audio Coding 3
Mode extension : CM (complete main)
Format settings, Endianness : Big
Codec ID : A_AC3
Duration : 1 h 39 min
Bit rate mode : Constant
Bit rate : 192 kb/s
Channel(s) : 2 channels
Channel positions : Front: L R
Sampling rate : 48.0 kHz
Frame rate : 31.250 FPS (1536 spf)
Compression mode : Lossy
Stream size : 136 MiB (6%)
Title : Новий
Language : Ukrainian
Default : No
Forced : No

Audio #3
ID : 4
Format : AC-3
Format/Info : Audio Coding 3
Mode extension : CM (complete main)
Format settings, Endianness : Big
Codec ID : A_AC3
Duration : 1 h 39 min
Bit rate mode : Constant
Bit rate : 384 kb/s
Channel(s) : 2 channels
Channel positions : Front: L R
Sampling rate : 48.0 kHz
Frame rate : 31.250 FPS (1536 spf)
Compression mode : Lossy
Stream size : 273 MiB (13%)
Language : English
Default : No
Forced : No

Text
ID : 5
Format : UTF-8
Codec ID : S_TEXT/UTF8
Codec ID/Info : UTF-8 Plain Text
Duration : 1 h 27 min
Bit rate : 47 b/s
Count of elements : 1021
Stream size : 30.2 KiB (0%)
Language : English
Default : Yes
Forced : No
Джерело:
За українські доріжки дякую п. taraskill1, urij546724, slavik_v_z
Особиста оцінка: не дивився


Срібний реліз (на рейтинг впливає 50% завантаженого)
 Трекер:    Зареєстрований   

Завантажити / скачати фільм українською



відео для новачків



 Зареєстрований:   2020-05-10 21:38
 Розмір:   2.13 GB 
 Оцінка фільму:   7.8/10 (Голосів: 4)
   
Інші релізи
Ваш часовий пояс: GMT + 2 Години

Нова тема   Відповісти