Відьма / The Witch / The VVitch: A New-England Folktale (2015) 1080p Eng | Sub Ukr/Eng

Нові коментарі

Нова тема   Відповісти
Автор Повідомлення
Anonymous 







2020-05-10 20:12  
Відьма / The Witch / The VVitch: A New-England Folktale (2015) 1080p Eng | Sub Ukr/Eng


Альтернативні постери:

Відьма / The Witch / The VVitch: A New-England Folktale (2015) 1080p Eng | Sub Ukr/Eng
Відьма / The Witch / The VVitch: A New-England Folktale (2015) 1080p Eng | Sub Ukr/Eng




Жанр: драма, містика, історичний, жахи
Країна: США, Великобританія, Канада, Бразилія



Кінокомпанія: Parts and Labor, RT Features, Rooks Nest Entertainment, Code Red Productions, Scythia Films, Maiden Voyage Pictures, Mott Street Pictures,Pulse Films, Very Special Projects
Режисер та сценарист: Роберт Еггерс
Композитор: Марк Корвен
Актори: Аня Тейлор-Джой, Ралф Айнесон, Кейт Дікі, Гарві Скрімшо, Лукас Довсон, Еллі Грейнджер, Джуліан Річінгс
Бюджет: 4 000 000 $

Сюжет:
Нова Англія, 1630-ті роки. Вільям і Кетрін з п'ятьма дітьми живуть на самотній фермі на узліссі стародавнього лісу. Сім'я починає руйнуватися від невідомого зла, коли їх новонароджений син таємничо зникає, врожай гине, а їхня донька підозрюється в чаклунстві.

Тривалість: 01:32:26
Якість: 1080p
Відео:
Кодек:
Розмір кадру: 1792 x 1080
Бітрейт: 15.9 Мбіи/с

Аудіо #1:
Мова: англійська
Переклад: Оригінал
Кодек: 5.1
Бітрейт: 1509 Кбіт/с

Субтитри #1:
Мова: українська | Повні | (посилання на OpenSubtitles)
Тип: програмні (м'які)
Формат: *.srt
Переклад: Denys Zen

Субтитри #2:
Мова: англійська | Повні, SDH
Тип: програмні (м'які)
Формат: *.srt

Цікаві факти:

Центральна ідея сюжету заснована на першому періоді переслідування в Новій Англії людей, запідозрених у зносинах з нечистою силою. Він трапився за 62 роки до сумнозвісного процесу над відьмами в місті Салем, штат Массачусетс, з лютого 1692 по травень 1693 року.

Письменник Стівен Кінг, якого часто називають майстром жанру, зізнався, що перегляд фільму кинув його в жах.

Фільм знятий у форматі 1,66: 1, т. Е. Співвідношення сторін екрану досить рідкісне (висота кадру зменшена для проекції короткофокусним об'єктивом на великий екран).
Info


General
Unique ID : 318135942720197828246702278659711515530 (0xEF56C0FC1F1C2A3F20B3059E2A093B8A)
Format :
Format version : Version 4
File size : 11.2 GiB
Duration : 1 h 32 min
Overall bit rate : 17.4 Mb/s
Movie name : The VVitch: A New-England Folktale (2015) 1080p [Eng][SubUkrEng] [Hurtom]
Encoded date : UTC 2020-05-10 17:01:45
Writing application : v46.0.0 ('No Deeper Escape') 64-bit
Writing library : libebml v1.3.10 + v1.5.2
Attachments : poster_eng1.jpg / poster_eng2.jpg

Video
ID : 1
Format : AVC
Format/Info : Advanced Video Codec
Format profile : [email protected]
Format settings : CABAC / 4 Ref Frames
Format settings, CABAC : Yes
Format settings, Reference fra : 4 frames
Codec ID : V_MPEG4/ISO/AVC
Duration : 1 h 32 min
Bit rate : 15.9 Mb/s
Width : 1 792 pixels
Height : 1 080 pixels
Display aspect ratio : 5:3
Frame rate mode : Constant
Frame rate : 23.976 (24000/1001) FPS
Color space : YUV
Chroma subsampling : 4:2:0
Bit depth : 8 bits
Scan type : Progressive
Bits/(Pixel*Frame) : 0.342
Stream size : 10.2 GiB (91%)
Title : The VVitch: A New-England Folktale (2015) 1080p
Writing library : core 148 r2665+53 6629127 t_mod_Custom [[email protected] X86_64]
Encoding settings : cabac=1 / ref=4 / deblock=1:-3:-3 / analyse=0x3:0x133 / me=umh / subme=11 / psy=1 / fade_compensate=0.00 / psy_rd=1.10:0.00 / mixed_ref=1 / me_range=32 / chroma_me=1 / trellis=2 / 8x8dct=1 / cqm=0 / deadzone=21,11 / fast_pskip=0 / chroma_qp_offset=-2 / threads=16 / lookahead_threads=4 / sliced_threads=0 / nr=0 / decimate=0 / interlaced=0 / bluray_compat=0 / constrained_intra=0 / fgo=0 / bframes=11 / b_pyramid=2 / b_adapt=2 / b_bias=0 / direct=3 / weightb=1 / open_gop=0 / weightp=2 / keyint=250 / keyint_min=23 / scenecut=40 / intra_refresh=0 / rc_lookahead=150 / rc=crf / mbtree=0 / crf=18.2000 / qcomp=0.70 / qpmin=0:0:0 / qpmax=69:69:69 / qpstep=4 / vbv_maxrate=50000 / vbv_bufsize=62500 / crf_max=0.0 / nal_hrd=none / filler=0 / ip_ratio=1.20 / pb_ratio=1.10 / aq=3:0.80 / aq-sensitivity=10.00 / aq-factor=1.00:1.00:1.00 / aq2=0 / aq3=0
Language : English
Default : Yes
Forced : No
Color range : Limited
Matrix coefficients : BT.709

Audio
ID : 2
Format :
Format/Info : Digital Theater Systems
Codec ID : A_DTS
Duration : 1 h 32 min
Bit rate mode : Constant
Bit rate : 1 509 kb/s
Channel(s) : 6 channels
Channel layout : C L R Ls Rs LFE
Sampling rate : 48.0 kHz
Frame rate : 93.750 FPS (512 SPF)
Bit depth : 24 bits
Compression mode : Lossy
Stream size : 998 MiB (9%)
Title : [Оригінал] 5.1 @ 1509 Кбіт/с
Language : English
Default : Yes
Forced : No

Text #1
ID : 3
Format : UTF-8
Codec ID : S_TEXT/UTF8
Codec ID/Info : UTF-8 Plain Text
Duration : 1 h 27 min
Bit rate : 65 b/s
Count of elements : 811
Stream size : 41.6 KiB (0%)
Title : Повні by Denys Zen
Language : Ukrainian
Default : Yes
Forced : No

Text #2
ID : 4
Format : UTF-8
Codec ID : S_TEXT/UTF8
Codec ID/Info : UTF-8 Plain Text
Duration : 1 h 24 min
Bit rate : 40 b/s
Count of elements : 814
Stream size : 25.0 KiB (0%)
Title : Full
Language : English
Default : No
Forced : No

Text #3
ID : 5
Format : UTF-8
Codec ID : S_TEXT/UTF8
Codec ID/Info : UTF-8 Plain Text
Duration : 1 h 27 min
Bit rate : 43 b/s
Count of elements : 953
Stream size : 27.7 KiB (0%)
Title : SDH
Language : English
Default : No
Forced : No

Menu
00:00:00.000 : en:Chapter 01
00:04:44.159 : en:Chapter 02
00:13:12.333 : en:Chapter 03
00:18:51.672 : en:Chapter 04
00:26:40.432 : en:Chapter 05
00:29:47.869 : en:Chapter 06
00:37:11.145 : en:Chapter 07
00:42:09.068 : en:Chapter 08
00:48:23.817 : en:Chapter 09
00:53:23.867 : en:Chapter 10
01:00:36.049 : en:Chapter 11
01:04:13.558 : en:Chapter 12
01:10:27.431 : en:Chapter 13
01:13:55.431 : en:Chapter 14
01:20:42.045 : en:Chapter 15
01:25:14.901 : en:Chapter 16
Скріншоти







Джерело:


Золотий реліз (завантажене не впливає на рейтинг)
 Трекер:    Зареєстрований   

Завантажити / скачати фільм українською



відео для новачків



 Зареєстрований:   2020-05-10 20:12
 Розмір:   11.22 GB 
 Оцінка фільму:   9.2/10 (Голосів: 6)
   
Інші релізи
Ваш часовий пояс: GMT + 2 Години

Нова тема   Відповісти