Сумна історія / सदमा / Sadma (1983) AVC

Нові коментарі

Нова тема   Відповісти
Автор Повідомлення
Arsenfpu 
Відео Гуртом - фільмокрай
Відео Гуртом - фільмокрай


З нами з: 30.04.09
Востаннє: 10.07.20
Повідомлень: 7049

2020-05-10 19:13  
Сумна історія / सदमा / Sadma (1983) AVC

Сумна історія / सदमा / Sadma (1983) AVC


Жанр: драма, комедія, музичний
Країна: Індія



Кінокомпанія: Sheemaro
Режисер: Балу Махендра
Актори: Камаль Хаасан, Шрі Деві, Гульшан Гровер, Сілк Смітха

Сюжет:
Молода дівчина після аварії потрапляє до лікарні де не впізнає своїх батьків через амнезію.
Виявляється це не усі біди, що спіткали дівчину бо на додачу до втраченої пам'яті вона поводиться, як у шестирічному віці. Одного разу її викрадають і відправляють працювати у бордель, але там її помічає шкільний учитель куди його змусив прийти його друг, він помічає дівчину і забирає до себе де виховує і допомагає.


Тривалість: 02:16:55
Якість:
Відео:
кодек:
розмір кадру: 1 024 х 576
бітрейт: 2 000 кб/с

Аудіо:
мова: українська
переклад: двоголосий закадровий
кодек: 2.0
бітрейт: 192 кб/с
Скріншоти














Про файл
General
Unique ID : 169301370170375566991248465184928842370 (0x7F5E42020B4E261C71E3701F87984282)
Complete name : C:\Sadma (1983) AVC [Hurtom].
Format :
Format version : Version 4 / Version 2
File size : 2.13 GiB
Duration : 2 h 16 min
Overall bit rate : 2 226 kb/s
Movie name : Сумна історія / सदमा / Sadma (1983)
Encoded date : UTC 2020-05-10 15:50:08
Writing application : v21.0.0 ('Tardigrades Will Inherit The Earth') 32-bit
Writing library : libebml v1.3.5 + v1.4.8
Cover : Yes
Attachments : cover.jpg

Video
ID : 1
Format : AVC
Format/Info : Advanced Video Codec
Format profile : [email protected]
Format settings, CABAC : Yes
Format settings, ReFrames : 4 frames
Codec ID : V_MPEG4/ISO/AVC
Duration : 2 h 16 min
Bit rate : 2 000 kb/s
Width : 1 024 pixels
Height : 576 pixels
Display aspect ratio : 16:9
Frame rate mode : Constant
Frame rate : 25.000 FPS
Color space : YUV
Chroma subsampling : 4:2:0
Bit depth : 8 bits
Scan type : Progressive
Bits/(Pixel*Frame) : 0.136
Stream size : 1.91 GiB (90%)
Writing library : core 157 r2935 545de2f
Encoding settings : cabac=1 / ref=3 / deblock=1:-1:-1 / analyse=0x3:0x113 / me=hex / subme=7 / psy=1 / psy_rd=1.00:0.15 / mixed_ref=1 / me_range=16 / chroma_me=1 / trellis=1 / 8x8dct=1 / cqm=0 / deadzone=21,11 / fast_pskip=1 / chroma_qp_offset=-3 / threads=12 / lookahead_threads=2 / sliced_threads=0 / nr=0 / decimate=1 / interlaced=0 / bluray_compat=0 / constrained_intra=0 / bframes=3 / b_pyramid=2 / b_adapt=1 / b_bias=0 / direct=1 / weightb=1 / open_gop=0 / weightp=2 / keyint=250 / keyint_min=25 / scenecut=40 / intra_refresh=0 / rc_lookahead=40 / rc=2pass / mbtree=1 / bitrate=2000 / ratetol=1.0 / qcomp=0.60 / qpmin=0 / qpmax=69 / qpstep=4 / cplxblur=20.0 / qblur=0.5 / ip_ratio=1.40 / aq=1:1.00
Default : Yes
Forced : No

Audio
ID : 2
Format : AC-3
Format/Info : Audio Coding 3
Mode extension : CM (complete main)
Format settings, Endianness : Big
Codec ID : A_AC3
Duration : 2 h 16 min
Bit rate mode : Constant
Bit rate : 224 kb/s
Channel(s) : 2 channels
Channel positions : Front: L R
Sampling rate : 48.0 kHz
Frame rate : 31.250 FPS (1536 spf)
Compression mode : Lossy
Stream size : 219 MiB (10%)
Language : Ukrainian
Default : Yes
Forced : No
Джерело:
За матеріал для релізу дякую пану leicheman
Особиста оцінка: не дивився


Срібний реліз (на рейтинг впливає 50% завантаженого)
 Трекер:    Зареєстрований   

Завантажити / скачати фільм українською



відео для новачків



 Зареєстрований:   2020-05-10 19:13
 Розмір:   2.13 GB 
 Оцінка фільму:   10/10 (Голосів: 1)
   
Інші релізи
Ваш часовий пояс: GMT + 2 Години

Нова тема   Відповісти