Джеймі-щупальця / Jamie's Got Tentacles (Сезон 1) (2014) 720 Ukr/Eng

Нові коментарі

Нова тема   Відповісти
Останній раз роздавалося sergiyko.5 (2020-07-09)
Автор Повідомлення
sergiyko.5 
VIP


З нами з: 25.02.16
Востаннє: 08.07.20
Повідомлень: 3241

2020-05-10 18:35  
Джеймі-щупальця / Jamie's Got Tentacles (Сезон 1) (2014) 720 Ukr/Eng


Джеймі-щупальця / Jamie's Got Tentacles (Сезон 1) (2014) 720 Ukr/Eng

Жанр: Пригоди, фантастика
Країна: Франція
Кінокомпанія: Samka Productions
Режисер: Лесзек Ждун

Сюжет:
Донедавна Джеймі жив на далекій планеті Бларб і був наслідним принцом. Все йшло чудово, доки одного разу, він ледь не став головною стравою злих Влоків, що намагалися ним повечеряти. Не роздумуючи, батьки Джеймі зібрали сина у подорож і, забезпечивши дитину всім необхідним, одягли в костюм людини та відправили до Землі. Корабель космічного втікача приземлився біля дому Ервіна Волша, який на диво спокійно поставився до прибульця та став йому найкращим другом. Однак небезпека ще не минула, адже Влоки відрядили на піймання Джеммі спецагента та Корову Мутанта. І найскладніше для Джеймі – ніколи не забувати якомога ретельніше ховати свої щупальця...




Тривалість: 1 серія: 12:00 (цілком серій: 52 з 52)
Якість:

Відео: кодек: розмір кадру: 1280 x 720 бітрейт: 900 кб/с
Аудіо 1: мова: українська переклад: професійний дубльований кодек: 2.0 бітрейт: 192 кб/с
Озвучення:
Аудіо 2: мова: англійська переклад: оригінал кодек: 2.0 бітрейт: 128 кб/с

Примітка: 51 серія 1 сезону записана не повністю, наприкінці не вистачає 42 секунди озвучки.
Перелік серій
Сезон 1
01.Jamie Is a Very Sick Boy
02.Boys Are from Mars and Girls Belong on the Moon
03.Last Day on Earth
04.A Gift from the Stars
05.Happy Zlobogniarf
06.Jamie Over the Moon
07.Guardian of the Galaxy
08.Special Delivery from Outer Space
09.Peace and Love
10.Super
11.No Peas on Earth for Jamie
12.The Invaders from Planet Earth
13.Mercenary for Hire
14.Out for a Spin
15.Saving Jamie's Skin
16.Last of the Galaxy
17.Cousin Josette
18.Beam Me Up Jamie
19.How It All Began
20.Unhappy Campers
21.Smells Like Somebody's Homesick
23.No More Sleep
25.Jamie's Twin
26.The FBI Always Rings Twice
27.The Biggest Bash in the Universe
29.Meet the New Erwin
30.My Cousin Is Boss of the Universe
31.Jamie Where's Granny
33.Leading Role
37.The Exchange
38.The Jamie Channel
39.Earth For Sale
40.The Night of the Shooting Stars
41.The Hideout
42.Beware of Jamie
43.Jamie and the Ponygeist
44.Very Artificial Intelligence
45.Revolution
46.Royal Snot
47.The Big Secret
49.My Dad Is Out Of This World
50.Erwin's Got Tentacles
51.Princess Jamie
52.I Bet You the World
Про файл:
General
Unique ID : 130489094082112849185829427844810477479 (0x622B490E10BBC3E024AFD0FC80A30FA7)
Complete name : D:\Documents\Torrents\MULTSER_2\Jamie's Got Tentacles 720p \Jamie's Got Tentacles S01 720p \S01E38.The Jamie Channel.720p.WERip.
Format :
Format version : Version 4
File size : 82.8 MiB
Duration : 12 min 0 s
Overall bit rate : 965 kb/s
Movie name : Jamie's Got Tentacles 720p by sergiyko
Encoded date : UTC 2020-05-10 15:31:28
Writing application : v46.0.0 ('No Deeper Escape') 64-bit
Writing library : libebml v1.3.10 + v1.5.2

Video
ID : 1
Format : AVC
Format/Info : Advanced Video Codec
Format profile : [email protected]
Format settings : CABAC / 3 Ref Frames
Format settings, CABAC : Yes
Format settings, Reference : 3 frames
Codec ID : V_MPEG4/ISO/AVC
Duration : 12 min 0 s
Bit rate : 645 kb/s
Width : 1 280 pixels
Height : 720 pixels
Display aspect ratio : 16:9
Frame rate mode : Constant
Frame rate : 25.000 FPS
Color space : YUV
Chroma subsampling : 4:2:0
Bit depth : 8 bits
Scan type : Progressive
Bits/(Pixel*Frame) : 0.028
Stream size : 55.4 MiB (67%)
Title : S01E38.The Jamie Channel
Language : English
Default : Yes
Forced : No
Color range : Limited
Color primaries : BT.709
Transfer characteristics : BT.709
Matrix coefficients : BT.709

Audio #1
ID : 2
Format : AC-3
Format/Info : Audio Coding 3
Commercial name : Dolby Digital
Codec ID : A_AC3
Duration : 12 min 0 s
Bit rate mode : Constant
Bit rate : 192 kb/s
Channel(s) : 2 channels
Channel layout : L R
Sampling rate : 48.0 kHz
Frame rate : 31.250 FPS (1536 SPF)
Compression mode : Lossy
Stream size : 16.5 MiB (20%)
Title : DUB | ПлюсПлюс
Language : Ukrainian
Service kind : Complete Main
Default : Yes
Forced : Yes

Audio #2
ID : 3
Format : LC
Format/Info : Advanced Audio Codec Low Complexity
Codec ID : A_AAC-2
Duration : 12 min 0 s
Bit rate : 126 kb/s
Channel(s) : 2 channels
Channel layout : L R
Sampling rate : 44.1 kHz
Frame rate : 43.066 FPS (1024 SPF)
Compression mode : Lossy
Stream size : 10.8 MiB (13%)
Language : English
Default : No
Forced : No
Скріншоти:


Запис/зведення: sergiyko


Бронзовий реліз (на рейтинг впливає 75% завантаженого)
 Трекер:    Зареєстрований   

Завантажити / скачати мультфільм українською



відео для новачків



 Зареєстрований:   2020-05-10 21:30
 Розмір:   4.09 GB 
 Оцінка мультсеріалу:   10/10 (Голосів: 7)
   
Jamies Tentacles 
Новенький


З нами з: 11.05.20
Востаннє: 11.05.20
Повідомлень: 1

2020-05-11 10:41  
вибачте, а сезон буде доповнюватися?

Додано через 1 годину 34 хвилини 50 секунд:

АбБуде 2 сезон в hd якості?

Додано через 11 секунд:

АбБуде 2 сезон в hd якості?

Smoke mk 
Новенький


З нами з: 09.05.20
Востаннє: 17.06.20
Повідомлень: 8

2020-05-12 11:44  
зроби Full HD збірник, у тебе взагалі є що то в Full HD?
Tengu Shredder 
Новенький


З нами з: 28.05.20
Востаннє: 03.06.20
Повідомлень: 1

2020-05-28 16:06  
чому тільки 1 сезон? зроби і другий сезон в hd якості.
Alex Root 
Новенький


З нами з: 03.06.20
Востаннє: 08.07.20
Повідомлень: 3

2020-06-05 19:12  
а я можу тобі допомогти, у одного мого Французького одного є dvd, з 1 і 2 сезони в hd, я можу його попросити завантажити 2 сезон на гугл дикс, потім дати посилання щоб ти вставив Українську озвучку.
Alex Root 
Новенький


З нами з: 03.06.20
Востаннє: 08.07.20
Повідомлень: 3

2020-06-13 14:42  
роздайте
Ваш часовий пояс: GMT + 2 Години

Нова тема   Відповісти