Встигнути до опівночі / Midnight Run (1988) AVC 2xUkr/Eng

Нові коментарі

Нова тема   Відповісти
Автор Повідомлення
PatataFrita 
Свій


З нами з: 05.04.20
Востаннє: 11.07.20
Повідомлень: 80

2020-05-10 17:59  
Встигнути до опівночі / Midnight Run (1988) AVC 2xUkr/Eng

Встигнути до опівночі / Midnight Run (1988) AVC 2xUkr/Eng


Жанр: трилер, пригодницький, комедія
Країна: США



Кінокомпанія: Universal Pictures
Режисер: Мартін Брест
Актори: Роберт Де Ніро, Чарльз Гродін, Яфет Котто, Джон Ештон, Денніс Фаріна, Джек Кіхоу

Сюжет:
Джек Волш - досвідчений професіонал, майстер своєї справи. Колись він служив в поліції, а тепер займається приватним розшуком. Його спеціалізація - операції по затримці злочинців, що втекли. Цього разу Джек зайнятий пошуком Джонатана Мандукіса, відомого під прізвиськом "Герцог". Мандукіс, скромний і інтелігентний бухгалтер, що зумів викрасти в мафії 15 мільйонів долларів. По договору Джек повинен спіймати «Герцога», закувати в наручники і доставити на літаку з Нью-Йорку в Лос-Анджелес в обумовлений термін. За це Волш отримає аж сто тисяч долларів. Для «мисливця за головами» схоже завдання - справжня дрібниця. Але Джек не врахував, що окрім нього за Мандукісом активно полюють гангстери, ФБР і колега-конкурент. Больше того, Мандукіс панічно боїться літати і Джеку потрібно везти Герцога через всю Америку.


Тривалість: 02:06:18
Якість: AVC
Відео:
кодек:
розмір кадру: 1008x546
бітрейт: 1896 кб/с

Аудіо # 1:
мова: українська
переклад: багатоголосий закадровий
кодек: 5.1
бітрейт: 384 кб/с

Аудіо # 2:
мова: українська
переклад: багатоголосий закадровий
кодек: 2.0
бітрейт: 192 кб/с

Аудіо # 3:
мова: англійська
переклад: оригінал
кодек: 2.0
бітрейт: 192 кб/с
Info
ds
General
Unique ID : 255270212006584824022954643990982900916 (0xC00B41284FC413175B7396F98F173CB4)
Complete name : D:\Midnight Run (1988) [2xUkr,Eng] AVC [Hurtom].
Format :
Format version : Version 4
File size : 2.35 GiB
Duration : 2 h 6 min
Overall bit rate : 2 668 kb/s
Writing application : Lavf57.71.100
Writing library : Lavf57.71.100
ErrorDetectionType : Per level 1

Video
ID : 1
Format : AVC
Format/Info : Advanced Video Codec
Format profile : [email protected]
Format settings : CABAC / 10 Ref Frames
Format settings, CABAC : Yes
Format settings, Reference : 10 frames
Codec ID : V_MPEG4/ISO/AVC
Duration : 2 h 6 min
Bit rate : 1 896 kb/s
Width : 1 008 pixels
Height : 546 pixels
Display aspect ratio : 1.85:1
Frame rate mode : Constant
Frame rate : 23.976 (24000/1001) FPS
Color space : YUV
Chroma subsampling : 4:2:0
Bit depth : 8 bits
Scan type : Progressive
Bits/(Pixel*Frame) : 0.144
Stream size : 1.63 GiB (69%)
Writing library : core 152 r2851M ba24899
Encoding settings : cabac=1 / ref=10 / deblock=1:-3:-3 / analyse=0x3:0x133 / me=umh / subme=11 / psy=1 / psy_rd=1.00:0.05 / mixed_ref=1 / me_range=48 / chroma_me=1 / trellis=2 / 8x8dct=1 / cqm=0 / deadzone=21,11 / fast_pskip=1 / chroma_qp_offset=-3 / threads=5 / lookahead_threads=1 / sliced_threads=0 / nr=0 / decimate=1 / interlaced=0 / bluray_compat=0 / constrained_intra=0 / bframes=12 / b_pyramid=2 / b_adapt=2 / b_bias=0 / direct=3 / weightb=1 / open_gop=0 / weightp=2 / keyint=230 / keyint_min=23 / scenecut=40 / intra_refresh=0 / rc_lookahead=60 / rc=2pass / mbtree=1 / bitrate=1896 / ratetol=1.0 / qcomp=0.65 / qpmin=0 / qpmax=69 / qpstep=4 / cplxblur=20.0 / qblur=0.5 / ip_ratio=1.40 / aq=1:1.00
Default : Yes
Forced : No
Color range : Limited
Color primaries : BT.709
Transfer characteristics : BT.709
Matrix coefficients : BT.709

Audio #1
ID : 2
Format : AC-3
Format/Info : Audio Coding 3
Commercial name : Dolby Digital
Codec ID : A_AC3
Duration : 2 h 6 min
Bit rate mode : Constant
Bit rate : 384 kb/s
Channel(s) : 6 channels
Channel layout : L R C LFE Ls Rs
Sampling rate : 48.0 kHz
Frame rate : 31.250 FPS (1536 SPF)
Compression mode : Lossy
Delay relative to video : -80 ms
Stream size : 347 MiB (14%)
Language : Ukrainian
Service kind : Complete Main
Default : Yes
Forced : No

Audio #2
ID : 3
Format : AC-3
Format/Info : Audio Coding 3
Commercial name : Dolby Digital
Codec ID : A_AC3
Duration : 2 h 5 min
Bit rate mode : Constant
Bit rate : 192 kb/s
Channel(s) : 2 channels
Channel layout : L R
Sampling rate : 48.0 kHz
Frame rate : 31.250 FPS (1536 SPF)
Compression mode : Lossy
Stream size : 173 MiB (7%)
Language : Ukrainian
Service kind : Complete Main
Default : Yes
Forced : No

Audio #3
ID : 4
Format : AC-3
Format/Info : Audio Coding 3
Commercial name : Dolby Digital
Codec ID : A_AC3
Duration : 2 h 5 min
Bit rate mode : Constant
Bit rate : 192 kb/s
Channel(s) : 2 channels
Channel layout : L R
Sampling rate : 48.0 kHz
Frame rate : 31.250 FPS (1536 SPF)
Compression mode : Lossy
Stream size : 173 MiB (7%)
Service kind : Complete Main
Default : Yes
Forced : No
Скріншоти
Джерело: &
За доріжку від ICTV дякую п. _oles, olgaya та Merdiff; за запис з НЛО дякую пану РОМЕО
Особиста оцінка: 9 - давно не бачив настільки якісне кіно


Срібний реліз (на рейтинг впливає 50% завантаженого)
 Трекер:    Зареєстрований   

Завантажити / скачати фільм українською



відео для новачків



 Зареєстрований:   2020-05-10 17:59
 Розмір:   2.35 GB 
 Оцінка фільму:   8.6/10 (Голосів: 14)
   
MakRA 
VIP


З нами з: 11.11.18
Востаннє: 11.07.20
Повідомлень: 1085

2020-05-10 18:46  
Шикарна поліцейська екшн-комедія!Happy
dreamer 
VIP


З нами з: 10.05.08
Востаннє: 09.07.20
Повідомлень: 646

2020-07-02 11:31  
гарна стрічка..9 з 10 ..дякую.
Ваш часовий пояс: GMT + 2 Години

Нова тема   Відповісти