Супер патруль / Super Troopers (2001) 1080p 2xUkr/Eng | Sub Eng

Нові коментарі

Нова тема   Відповісти
Автор Повідомлення
Anonymous 







2020-05-10 16:37  
Супер патруль / Super Troopers (2001) 1080p 2xUkr/Eng | Sub Eng




Жанр: комедія, кримінальний, детектив
Країна: США



Кінокомпанія: Fox Searchlight Pictures, Jersey Shore, Cataland Films
Режисер: Джей Чандрашекхар / Jay Chandrasekhar
Сценаристи: Джей Чандрашекхар / Jay Chandrasekhar, Кевін Хеффернан / Kevin Heffernan, Стів Леммі / Steve Lemme
Актори: Брайан Кокс / Brian Cox, Деніел вон Барген / Daniel von Bargen, Андре Віпполіс / André Vippolis, Джої Керн / Joey Kern, Джеффрі Аренд / Geoffrey Arend, Ерік Столханске / Erik Stolhanske
Бюджет: 3 000 000 $

Сюжет:
Тоні, Мак, Реббіт, Фостер і Фава - поліцейські штату Вермонт, живуть просто чудово. Патрулюючи невелику територію, неподалік канадського кордону, поліцейські розлінились настільки, що вже просто відверто «забивають» на роботу. Але коли в місті урізають бюджет, це починає сильно загрожувати їхній кишені, 5 друзів об'єднуються в боротьбі за виживання.

Щоб повернути все як було, їм необхідно розкрити вбивство і знайти всі можливі наркотики. Супер поліцейські роблять спробу розкрити злочини, тим самим врятувати свою роботу і довести місцевому відділенню поліції, що вони - найкращі.


Тривалість: 01:40:20
Якість: 1080p

Відео:
Кодек:
Розмір кадру: 1918 x 1040
Бітрейт: 13.0 Мбіт/с

Аудіо #1:
Мова: українська
Переклад: двоголосий закадровий [ICTV]

Кодек: 5.1
Бітрейт: 1509 Кбіт/с

Аудіо #2:
Мова: українська
Переклад: двоголосий закадровий [2+2]

Кодек: 2.0
Бітрейт: 192 Кбіт/с

Аудіо #3:
Мова: англійська
Переклад: Оригінал
Кодек: 5.1
Бітрейт: 1509 Кбіт/с

Субтитри:
Мова: англійська | SDH
Тип: програмні (м'які), пререндерні
Формат: *.srt, *.pgs

Info


General
Unique ID : 187614658640746346307658903659224251186 (0x8D2544D72B4BBFD3229FAFC360703B32) [Hurtom].
Format :
Format version : Version 4
File size : 11.5 GiB
Duration : 1 h 40 min
Overall bit rate : 16.3 Mb/s
Movie name : Super Troopers (2001) 1080p [2xUkrEng][SubEng] [Hurtom]
Encoded date : UTC 2020-05-10 12:13:45
Writing application : v46.0.0 ('No Deeper Escape') 64-bit
Writing library : libebml v1.3.10 + v1.5.2
Attachments : poster_eng.jpg

Video
ID : 1
Format : AVC
Format/Info : Advanced Video Codec
Format profile : [email protected]
Format settings : CABAC / 4 Ref Frames
Format settings, CABAC : Yes
Format settings, Reference fra : 4 frames
Codec ID : V_MPEG4/ISO/AVC
Duration : 1 h 40 min
Bit rate : 13.0 Mb/s
Width : 1 918 pixels
Height : 1 040 pixels
Display aspect ratio : 1.85:1
Frame rate mode : Constant
Frame rate : 23.976 (24000/1001) FPS
Color space : YUV
Chroma subsampling : 4:2:0
Bit depth : 8 bits
Scan type : Progressive
Bits/(Pixel*Frame) : 0.273
Stream size : 9.14 GiB (80%)
Title : Super Troopers (2001) 1080p
Writing library : core 157 r2935 545de2f
Encoding settings : cabac=1 / ref=4 / deblock=1:-3:-3 / analyse=0x3:0x133 / me=umh / subme=10 / psy=1 / psy_rd=1.00:0.00 / mixed_ref=1 / me_range=24 / chroma_me=1 / trellis=2 / 8x8dct=1 / cqm=0 / deadzone=21,11 / fast_pskip=0 / chroma_qp_offset=-2 / threads=18 / lookahead_threads=3 / sliced_threads=0 / nr=0 / decimate=1 / interlaced=0 / bluray_compat=0 / constrained_intra=0 / bframes=8 / b_pyramid=2 / b_adapt=2 / b_bias=0 / direct=3 / weightb=1 / open_gop=0 / weightp=2 / keyint=240 / keyint_min=24 / scenecut=40 / intra_refresh=0 / rc_lookahead=60 / rc=crf / mbtree=1 / crf=13.5 / qcomp=0.60 / qpmin=0 / qpmax=69 / qpstep=4 / vbv_maxrate=62500 / vbv_bufsize=78125 / crf_max=0.0 / nal_hrd=none / filler=0 / ip_ratio=1.40 / aq=1:1.00
Language : English
Default : Yes
Forced : No
Color range : Limited
Color primaries : BT.709
Transfer characteristics : BT.709
Matrix coefficients : BT.709

Audio #1
ID : 2
Format :
Format/Info : Digital Theater Systems
Codec ID : A_DTS
Duration : 1 h 40 min
Bit rate mode : Constant
Bit rate : 1 510 kb/s
Channel(s) : 6 channels
Channel layout : C L R Ls Rs LFE
Sampling rate : 48.0 kHz
Frame rate : 93.750 FPS (512 SPF)
Bit depth : 24 bits
Compression mode : Lossy
Stream size : 1.06 GiB (9%)
Title : DVO [ICTV] 5.1 @ 1510 Кбіт/с
Language : Ukrainian
Default : Yes
Forced : No

Audio #2
ID : 3
Format : AC-3
Format/Info : Audio Coding 3
Commercial name : Dolby Digital
Codec ID : A_AC3
Duration : 1 h 40 min
Bit rate mode : Constant
Bit rate : 192 kb/s
Channel(s) : 2 channels
Channel layout : L R
Sampling rate : 48.0 kHz
Frame rate : 31.250 FPS (1536 SPF)
Bit depth : 16 bits
Compression mode : Lossy
Stream size : 138 MiB (1%)
Title : DVO [2+2] 2.0 @ 192 Кбіт/с
Language : Ukrainian
Service kind : Complete Main
Default : No
Forced : No

Audio #3
ID : 4
Format :
Format/Info : Digital Theater Systems
Codec ID : A_DTS
Duration : 1 h 40 min
Bit rate mode : Constant
Bit rate : 1 509 kb/s
Channel(s) : 6 channels
Channel layout : C L R Ls Rs LFE
Sampling rate : 48.0 kHz
Frame rate : 93.750 FPS (512 SPF)
Bit depth : 24 bits
Compression mode : Lossy
Stream size : 1.06 GiB (9%)
Title : [Оригінал] 5.1 @ 1509 Кбіт/с
Language : English
Default : No
Forced : No

Text #1
ID : 5
Format : UTF-8
Codec ID : S_TEXT/UTF8
Codec ID/Info : UTF-8 Plain Text
Duration : 1 h 38 min
Bit rate : 89 b/s
Count of elements : 1518
Stream size : 64.8 KiB (0%)
Title : SDH
Language : English
Default : No
Forced : No

Text #2
ID : 6
Format : PGS
Codec ID : S_HDMV/PGS
Codec ID/Info : Picture based subtitle format used on BDs/HD-DVDs
Duration : 1 h 39 min
Bit rate : 83.1 kb/s
Count of elements : 3051
Stream size : 58.9 MiB (1%)
Title : PGS SDH
Language : English
Default : No
Forced : No

Menu
00:00:00.000 : :Car Talk
00:03:15.696 : :State Troopers
00:06:50.410 : :Trooper Games
00:11:49.709 : :Culture Clash
00:15:20.920 : :Cat Game
00:18:47.627 : :A Murder Investigation
00:21:46.305 : :Who's Jurisdiction Is It?
00:25:55.054 : :In the Lion's Den
00:31:25.884 : :A Lotta Pot
00:40:01.900 : :Drug Conspiracy
00:45:18.716 : :Illicit Love
00:55:34.832 : :Burger Punk
01:04:10.347 : :Bikers
01:05:50.447 : :Target Practice
01:07:58.074 : :2 Minutes
01:15:28.524 : :Shut Down
01:16:25.081 : :Farva's Surprise
01:20:47.843 : :You Could Be a Hero
01:28:00.275 : :The Governor's Letter
01:33:16.591 : :End Credits
Скріншоти







Запис звуку з ТБ: urij546724 та Merdiff

Джерело:


Срібний реліз (на рейтинг впливає 50% завантаженого)
 Трекер:    Зареєстрований   

Завантажити / скачати фільм українською



відео для новачків



 Зареєстрований:   2020-05-10 16:37
 Розмір:   11.45 GB 
 Оцінка фільму:   -/10 (Голосів: 0)
   
Інші релізи
Ваш часовий пояс: GMT + 2 Години

Нова тема   Відповісти