Гріпсхольм / Gripsholm (2000) AVC Ukr/Ger

Нові коментарі

Нова тема   Відповісти
Автор Повідомлення
Arsenfpu 
Відео Гуртом - фільмокрай
Відео Гуртом - фільмокрай


З нами з: 30.04.09
Востаннє: 06.07.20
Повідомлень: 7042

2020-05-10 13:33  
Гріпсхольм / Gripsholm (2000) AVC Ukr/Ger

Гріпсхольм / Gripsholm (2000) AVC Ukr/Ger


Жанр: драма, історичний, романтичний
Країна: Німеччина, Швейцарія, Австрія



Кінокомпанія: Catpics, Dor Film Produktionsgesellschaft, Kinowelt Filmproduktion
Режисер: Ксав'є Коллер
Актори: Ульріх Нетен, Хайке Макач, Жасмін Табатабай, Маркус Томас, Рудольф Весселі, Хорст Краузе, Лейф Лілєрот

Сюжет:
Німеччина, 1932 рік. Відомий журналіст Курт зі своєю подружкою відправляється на відпочинок в замок Гріпсхольм. По дорозі до них приєднуються ще двоє: чарівна актриса Біллі і її друг Карл. Вчотирьох вони безтурботно проводять час, але веселощам настає кінець: фашисти приходять до влади.


Тривалість: 01:36:29
Якість:
Відео:
кодек:
розмір кадру: 1 024 х 576
бітрейт: 2 499 кб/с

Аудіо # 1:
мова: українська
переклад: двоголосий закадровий
кодек: 2.0
бітрейт: 192 кб/с
примітка: на відрізку 19:27 - 20:01 відсутня озвучка. Також відсутня озвучка на піснях.

Аудіо # 2:
мова: німецька
переклад: оригінал
кодек: 2.0
бітрейт: 128 кб/с

Субтитри:
мова: українська (на місця без української озвучки і пісні)
тип: програмні (м'які)
формат: *.srt
Скріншоти














Про файл
General
Unique ID : 238740070741803316703653953171500299507 (0xB39BAA45162607185D7D9C0A5B1FF4F3)
Complete name : C:\Gripsholm (2000) [Ukr,Ger] AVC [Hurtom].
Format :
Format version : Version 4 / Version 2
File size : 1.90 GiB
Duration : 1 h 36 min
Overall bit rate : 2 824 kb/s
Movie name : Гріпсхольм / Gripsholm (2000)
Encoded date : UTC 2020-05-10 09:53:14
Writing application : v21.0.0 ('Tardigrades Will Inherit The Earth') 32-bit
Writing library : libebml v1.3.5 + v1.4.8
Cover : Yes
Attachments : cover.jpg

Video
ID : 1
Format : AVC
Format/Info : Advanced Video Codec
Format profile : [email protected]
Format settings, CABAC : Yes
Format settings, ReFrames : 4 frames
Codec ID : V_MPEG4/ISO/AVC
Duration : 1 h 36 min
Bit rate : 2 499 kb/s
Width : 1 024 pixels
Height : 576 pixels
Display aspect ratio : 16:9
Frame rate mode : Constant
Frame rate : 23.976 (23976/1000) FPS
Color space : YUV
Chroma subsampling : 4:2:0
Bit depth : 8 bits
Scan type : Progressive
Bits/(Pixel*Frame) : 0.177
Stream size : 1.68 GiB (88%)
Writing library : core 157 r2935 545de2f
Encoding settings : cabac=1 / ref=3 / deblock=1:-1:-1 / analyse=0x3:0x113 / me=hex / subme=7 / psy=1 / psy_rd=1.00:0.15 / mixed_ref=1 / me_range=16 / chroma_me=1 / trellis=1 / 8x8dct=1 / cqm=0 / deadzone=21,11 / fast_pskip=1 / chroma_qp_offset=-3 / threads=12 / lookahead_threads=2 / sliced_threads=0 / nr=0 / decimate=1 / interlaced=0 / bluray_compat=0 / constrained_intra=0 / bframes=3 / b_pyramid=2 / b_adapt=1 / b_bias=0 / direct=1 / weightb=1 / open_gop=0 / weightp=2 / keyint=240 / keyint_min=23 / scenecut=40 / intra_refresh=0 / rc_lookahead=40 / rc=2pass / mbtree=1 / bitrate=2499 / ratetol=1.0 / qcomp=0.60 / qpmin=0 / qpmax=69 / qpstep=4 / cplxblur=20.0 / qblur=0.5 / ip_ratio=1.40 / aq=1:1.00
Default : Yes
Forced : No

Audio #1
ID : 2
Format : AC-3
Format/Info : Audio Coding 3
Mode extension : CM (complete main)
Format settings, Endianness : Big
Codec ID : A_AC3
Duration : 1 h 36 min
Bit rate mode : Constant
Bit rate : 192 kb/s
Channel(s) : 2 channels
Channel positions : Front: L R
Sampling rate : 48.0 kHz
Frame rate : 31.250 FPS (1536 spf)
Compression mode : Lossy
Stream size : 132 MiB (7%)
Title : Київ
Language : Ukrainian
Default : Yes
Forced : Yes

Audio #2
ID : 3
Format :
Format/Info : Advanced Audio Codec
Format profile : LC
Codec ID : A_AAC
Duration : 1 h 36 min
Bit rate : 128 kb/s
Channel(s) : 2 channels
Channel positions : Front: L R
Sampling rate : 48.0 kHz
Frame rate : 46.875 FPS (1024 spf)
Compression mode : Lossy
Stream size : 88.3 MiB (5%)
Language : German
Default : No
Forced : No

Text
ID : 4
Format : UTF-8
Codec ID : S_TEXT/UTF8
Codec ID/Info : UTF-8 Plain Text
Duration : 1 h 31 min
Bit rate : 7 b/s
Count of elements : 92
Stream size : 4.75 KiB (0%)
Language : Ukrainian
Default : Yes
Forced : Yes
Джерело:
За матеріал для релізу дякую пану urij546724
За постер дякую пану alexander_bortnyk
Особиста оцінка: не дивився


Срібний реліз (на рейтинг впливає 50% завантаженого)
 Трекер:    Зареєстрований   

Завантажити / скачати фільм українською



відео для новачків



 Зареєстрований:   2020-05-10 13:33
 Розмір:   1.9 GB 
 Оцінка фільму:   7/10 (Голосів: 4)
   
Інші релізи
   Гріпсхольм / Gripsholm (2000) 1080p Ukr/Ger | sub Eng urij546724  3 / 0   6.89 GB   2020-03-30 19:53 
dabgu 
Новенький


З нами з: 09.02.09
Востаннє: 07.07.20
Повідомлень: 8

2020-05-11 01:26  
У Німеччині при владі були нацисти, а не фашисти. Слід би пам'ятати, щоб не уподібнюватись московитам.
perepadia 
VIP


З нами з: 27.10.08
Востаннє: 06.07.20
Повідомлень: 300

2020-05-13 12:09  
Ґріпсгольм.
Galego 
Частий відвідувач


З нами з: 08.04.11
Востаннє: 01.07.20
Повідомлень: 28

2020-05-13 21:39  
"Вчотирьох вони безтурботно проводять час, але веселощам настає кінець: фашисти приходять до влади". Що за комуністична пропаґанда?
Так, я ще не дивився фільм. Але анотація до фільму говорить сама за себе. Для ясності треба було дописати: "Всі вони були комуністами..." Так зрозуміліше, чому веселощам настав кінець.
Ще подумаю, чи дивитися.

Ваш часовий пояс: GMT + 2 Години

Нова тема   Відповісти