Додому до темряви (Сезон 1) / Home Before Dark (Season 1) (2020) 720p Eng | Sub Ukr/Eng

Нові коментарі

Нова тема   Відповісти
Автор Повідомлення
Anonymous 







2020-05-10 01:04  
Додому до темряви (Сезон 1) / Home Before Dark (Season 1) (2020) 720p Eng | Sub Ukr/Eng



ще постер
Додому до темряви (Сезон 1) / Home Before Dark (Season 1) (2020) 720p Eng | Sub Ukr/Eng
Жанр: кримінальний, драма, детектив
Країна: США



Кінокомпанія: Apple
Режисер: Джон М. Чу
Актори: Бруклін Прінс, Джим Стерджес, Кайлі Роджерс, Еббі Міллер, Дерік Маккейб

Сюжет:
Повернувшись із сім'єю до рідного містечка батька, дев'ятирічна дівчинка в пошуках правди береться за давню нерозкриту справу. Сюжет базується на реальних подіях.


Тривалість: 1 серія: 44:00 (цілком серій: 10 з 10)
Перелік серій
1.Magic Hour
2.Never Be the Same
3.Sting Like a Bee
4.The Bird, Man
5.The Green Bike
6.88 Miles an Hour
7.Search Party
8.The Future is Female
9.Superhero Monster Slayer
10.Bigger Than All of Us
Якість:
Відео:
кодек:
розмір кадру: 1356 х 678
бітрейт: 2724 кб/с

Аудіо:
мова: англійська
переклад: оригінал
кодек: E- JOC 5.1
бітрейт: 768 кб/с

Субтитри: Apple TV +
мова: українська
тип: програмні (м'які)
формат: *.srt

Субтитри:
мова: англійська
тип: програмні (м'які)
формат: *.srt
Скріншоти

















MI
Video
ID : 1
Format : AVC
Format/Info : Advanced Video Codec
Format profile : [email protected]
Format settings : CABAC / 5 Ref Frames
Format settings, CABAC : Yes
Format settings, Reference : 5 frames
Codec ID : V_MPEG4/ISO/AVC
Duration : 56 min 18 s
Bit rate : 2 724 kb/s
Width : 1 356 pixels
Height : 678 pixels
Display aspect ratio : 2.000
Frame rate mode : Constant
Frame rate : 23.976 FPS
Color space : YUV
Chroma subsampling : 4:2:0
Bit depth : 8 bits
Scan type : Progressive
Bits/(Pixel*Frame) : 0.124
Stream size : 1.07 GiB (78%)
Language : English
Default : Yes
Forced : No
Color range : Limited
Color primaries : BT.709
Transfer characteristics : BT.709
Matrix coefficients : BT.709

Audio
ID : 2
Format : E-AC-3 JOC
Format/Info : Enhanced AC-3 with Joint Object Coding
Commercial name : Dolby Digital Plus with Dolby Atmos
Codec ID : A_EAC3
Duration : 56 min 18 s
Bit rate mode : Constant
Bit rate : 768 kb/s
Channel(s) : 6 channels
Channel layout : L R C LFE Ls Rs
Sampling rate : 48.0 kHz
Frame rate : 31.250 FPS (1536 SPF)
Compression mode : Lossy
Stream size : 301 MiB (22%)
Language : English
Service kind : Complete Main
Default : Yes
Forced : No
Complexity index : 16
Number of dynamic objects : 15
Bed channel count : 1 channel
Bed channel configuration : LFE

Text #1
ID : 3
Format : UTF-8
Codec ID : S_TEXT/UTF8
Codec ID/Info : UTF-8 Plain Text
Duration : 54 min 15 s
Bit rate : 75 b/s
Count of elements : 613
Stream size : 30.2 KiB (0%)
Language : Ukrainian
Default : Yes
Forced : No

Text #2
ID : 4
Format : UTF-8
Codec ID : S_TEXT/UTF8
Codec ID/Info : UTF-8 Plain Text
Duration : 51 min 13 s
Bit rate : 53 b/s
Count of elements : 570
Stream size : 20.0 KiB (0%)
Language : English
Default : No
Forced : No
Джерело:
Особиста оцінка: 10 - без зайвих вагань рекомендую всім!


Бронзовий реліз (на рейтинг впливає 75% завантаженого)
 Трекер:    Зареєстрований   

Завантажити / скачати серіал українською



відео для новачків



 Зареєстрований:   2020-05-10 01:04
 Розмір:   12.52 GB 
 Оцінка серіалу:   9.9/10 (Голосів: 8)
   
taksist 
VIP


З нами з: 10.12.12
Востаннє: 02.06.20
Повідомлень: 361

2020-05-11 07:23  
цілком серій-всього серій
taksist 
VIP


З нами з: 10.12.12
Востаннє: 02.06.20
Повідомлень: 361

2020-05-13 04:24  
крутяцьке кіно. можу сказати тільки одне - рекомендую.
Ваш часовий пояс: GMT + 2 Години

Нова тема   Відповісти